[ Сегодня идет свободное скачивание без начисления Download ]


Статистика раздачи
Нет
 
   
 
Top  
 
 
-Славные парни / Goodfellas (1990) BDRip--«Тридцать лет из жизни мафии»- Русское название: Славные парни
Оригинальное название: Goodfellas
Год выпуска: 1990
Страна: США
Жанр: Драма, Криминал, Триллер
Описание фильма:
Генри Хилл — начинающий гангстер, занимающийся грабежами вместе с Джими Конвеем и Томми Де Вито, которые с легкостью убивают любого, кто встает у них на пути восхождения к вершинам Мафии. Приходит время когда Генри, сам пострадавший от своих напарников, должен приложить руку к началу конца Джимми и Томми…
Режиссер: Мартин Скорсезе / Martin Scorsese
Актеры: Роберт Де Ниро, Рэй Лиотта, Джо Пеши, Лоррейн Бракко, Пол Сорвино, Фрэнк Сиверо, Тони Дарроу, Майк Старр, Фрэнк Винсент, Деби Мейзар, Сэмюэл Л. Джексон
Продолжительность: 02:25:27
Перевод:
• Профессиональный (полное дублирование)
• Профессиональный (двухголосый, закадровый)
• Авторский (одноголосый закадровый)

Субтитры:
• Английские, нидерландские (вшитые отключаемые)
• Русские (отдельным файлом)
- -Дата мировой премьеры: 12 сентября 1990
Дата выхода DVD релиза: 3 февраля 2011, «CP-Digital»
Видеокодек: MPEG-4 AVC/H.264
Битрейт видео: ~11,6 Мбит/сек
Размер кадра: 1920x1080
Качество видео: BDRip 1080p
Формат: MKV
Аудиокодек: AC3
Аудио #1: Русский (АС3 / 5.1 / 48 kHz / 384 kbps ) - Дубляж
Аудио #2: Английский ( AC3 / 5.1 / 48 kHz / 640 kbps )
Аудио #3: Русский (АС3 / 5.1 / 48 kHz / 448 kbps ) - Двухголосный закадровый ( П.Гланц и Т.Казакова )
Аудио #4: Русский (АС3 / 5.1 / 48 kHz / 448 kbps ) - Одноголосный закадровый ( А.Михалёв )-

Награды и номинации


Оскар, 1991 год
Победитель (1)
Лучшая мужская роль второго плана (Джо Пеши)


Золотой глобус, 1991 год
Номинации (5):
Лучший фильм (драма)
Лучшая мужская роль второго плана (Джо Пеши)
Лучшая женская роль второго плана (Лоррейн Бракко)
Лучший режиссер (Мартин Скорсезе)
Лучший сценарий



Британская академия, 1991 год
Победитель (5)
Лучший фильм
Лучший режиссер (Мартин Скорсезе)
Лучший адаптированный сценарий
Лучшие костюмы
Лучший монтаж

Номинации (2):
Лучшая мужская роль (Роберт Де Ниро)
Лучшая работа оператора



Сезар, 1991 год
Номинации (1):
Лучший фильм на иностранном языке


Венецианский кинофестиваль, 1990 год
Победитель (1)
Серебряный лев за лучшую режиссерскую работу (Мартин Скорсезе)
-

Mediainfo

Общее
Уникальный идентификатор : 184576859133956979481826413314485745203 (0x8ADC35C2DE446F7DAC4C37D654577633)
Полное имя : E:\Интернет-загрузки\Готовые торренты\Slavnye.parni.1990.x264.BDRip.1080p\Slavnye.parni.1990.x264.BDRip.1080p.mkv
Формат : Matroska
Версия формата : Version 2
Размер файла : 14,0 Гбайт
Продолжительность : 2 ч. 25 м.
Общий поток : 13,8 Мбит/сек
Дата кодирования : UTC 2012-11-19 14:20:18
Программа кодирования : mkvmerge v5.6.0 ('Kenya Kane') built on Jun 29 2012 15:01:44
Библиотека кодирования : libebml v1.2.3 + libmatroska v1.3.0
Видео
Идентификатор : 1
Формат : AVC
Формат/Информация : Advanced Video Codec
Профиль формата : High@L4.1
Параметр CABAC формата : Да
Параметр ReFrames формата : 4 кадра
Режим смешивания : Header stripping
Идентификатор кодека : V_MPEG4/ISO/AVC
Продолжительность : 2 ч. 25 м.
Битрейт : 11,6 Мбит/сек
Ширина : 1920 пикселей
Высота : 1080 пикселей
Соотношение сторон : 16:9
Режим частоты кадров : Постоянный
Частота кадров : 23,976 кадра/сек
Цветовое пространство : YUV
Субдискретизация насыщенности : 4:2:0
Битовая глубина : 8 бит
Тип развёртки : Прогрессивная
Бит/(Пиксели*Кадры) : 0.233
Размер потока : 11,8 Гбайт (84%)
Заголовок : x264 crf 11854 kb/s
Библиотека кодирования : x264 core 65 r998M 6768543
Настройки программы : cabac=1 / ref=4 / deblock=1:-2:-2 / analyse=0x3:0x113 / me=umh / subme=7 / psy_rd=1.0:0.0 / mixed_ref=1 / me_range=16 / chroma_me=1 / trellis=2 / 8x8dct=1 / cqm=0 / deadzone=21,11 / chroma_qp_offset=-2 / threads=6 / nr=0 / decimate=0 / mbaff=0 / bframes=3 / b_pyramid=1 / b_adapt=1 / b_bias=0 / direct=3 / wpredb=1 / keyint=250 / keyint_min=25 / scenecut=40(pre) / rc=crf / crf=22.0 / qcomp=0.60 / qpmin=10 / qpmax=51 / qpstep=4 / vbv_maxrate=38000 / vbv_bufsize=30000 / ip_ratio=1.40 / pb_ratio=1.30 / aq=1:1.00
Язык : English
Default : Да
Forced : Нет
Аудио #1
Идентификатор : 2
Формат : AC-3
Формат/Информация : Audio Coding 3
Расширение режима : CM (complete main)
Параметр Endianness формата : Big
Режим смешивания : Header stripping
Идентификатор кодека : A_AC3
Продолжительность : 2 ч. 25 м.
Вид битрейта : Постоянный
Битрейт : 384 Кбит/сек
Каналы : 6 каналов
Расположение каналов : Front: L C R, Side: L R, LFE
Частота : 48,0 КГц
Битовая глубина : 16 бит
Метод сжатия : С потерями
Размер потока : 400 Мбайт (3%)
Заголовок : AC3 5.1 (384 kbps)
Язык : Russian
Default : Да
Forced : Нет
Аудио #2
Идентификатор : 5
Формат : AC-3
Формат/Информация : Audio Coding 3
Расширение режима : CM (complete main)
Параметр Endianness формата : Big
Режим смешивания : Header stripping
Идентификатор кодека : A_AC3
Продолжительность : 2 ч. 25 м.
Вид битрейта : Постоянный
Битрейт : 640 Кбит/сек
Каналы : 6 каналов
Расположение каналов : Front: L C R, Side: L R, LFE
Частота : 48,0 КГц
Битовая глубина : 16 бит
Метод сжатия : С потерями
Размер потока : 666 Мбайт (5%)
Default : Нет
Forced : Нет
Аудио #3
Идентификатор : 6
Формат : AC-3
Формат/Информация : Audio Coding 3
Расширение режима : CM (complete main)
Параметр Endianness формата : Big
Режим смешивания : Header stripping
Идентификатор кодека : A_AC3
Продолжительность : 2 ч. 25 м.
Вид битрейта : Постоянный
Битрейт : 448 Кбит/сек
Каналы : 6 каналов
Расположение каналов : Front: L C R, Side: L R, LFE
Частота : 48,0 КГц
Битовая глубина : 16 бит
Метод сжатия : С потерями
Размер потока : 466 Мбайт (3%)
Default : Нет
Forced : Нет
Аудио #4
Идентификатор : 7
Формат : AC-3
Формат/Информация : Audio Coding 3
Расширение режима : CM (complete main)
Параметр Endianness формата : Big
Режим смешивания : Header stripping
Идентификатор кодека : A_AC3
Продолжительность : 2 ч. 25 м.
Вид битрейта : Постоянный
Битрейт : 448 Кбит/сек
Каналы : 6 каналов
Расположение каналов : Front: L C R, Side: L R, LFE
Частота : 48,0 КГц
Битовая глубина : 16 бит
Метод сжатия : С потерями
Размер потока : 466 Мбайт (3%)
Default : Нет
Forced : Нет
Текст #1
Идентификатор : 3
Формат : UTF-8
Идентификатор кодека : S_TEXT/UTF8
Идентификатор кодека/Информация : UTF-8 Plain Text
Язык : Dutch
Default : Нет
Forced : Нет
Текст #2
Идентификатор : 4
Формат : UTF-8
Идентификатор кодека : S_TEXT/UTF8
Идентификатор кодека/Информация : UTF-8 Plain Text
Язык : English
Default : Нет
Forced : Нет
Меню
00:00:00.000 : en:00:00:00.000
00:02:42.913 : en:00:02:42.913
00:05:49.432 : en:00:05:49.432
00:07:36.539 : en:00:07:36.539
00:09:08.465 : en:00:09:08.465
00:10:48.731 : en:00:10:48.731
00:13:28.558 : en:00:13:28.558
00:15:01.818 : en:00:15:01.818
00:16:38.581 : en:00:16:38.581
00:19:43.099 : en:00:19:43.099
00:23:46.342 : en:00:23:46.342
00:28:39.635 : en:00:28:39.635
00:31:32.641 : en:00:31:32.641
00:34:36.157 : en:00:34:36.157
00:35:43.391 : en:00:35:43.391
00:37:21.156 : en:00:37:21.156
00:41:27.568 : en:00:41:27.568
00:44:26.414 : en:00:44:26.414
00:48:56.016 : en:00:48:56.016
00:52:04.371 : en:00:52:04.371
00:57:07.341 : en:00:57:07.341
01:01:10.250 : en:01:01:10.250
01:03:46.239 : en:01:03:46.239
01:06:23.229 : en:01:06:23.229
01:07:43.476 : en:01:07:43.476
01:12:32.265 : en:01:12:32.265
01:15:43.289 : en:01:15:43.289
01:18:39.298 : en:01:18:39.298
01:20:02.715 : en:01:20:02.715
01:23:05.397 : en:01:23:05.397
01:25:37.716 : en:01:25:37.716
01:28:14.372 : en:01:28:14.372
01:30:29.841 : en:01:30:29.841
01:33:20.845 : en:01:33:20.845
01:37:52.450 : en:01:37:52.450
01:40:01.746 : en:01:40:01.746
01:42:51.415 : en:01:42:51.415
01:46:34.138 : en:01:46:34.138
01:49:14.298 : en:01:49:14.298
01:53:21.545 : en:01:53:21.545
02:03:56.179 : en:02:03:56.179
02:07:18.714 : en:02:07:18.714
02:09:29.679 : en:02:09:29.679
02:12:00.830 : en:02:12:00.830
02:15:02.011 : en:02:15:02.011
02:18:47.402 : en:02:18:47.402
02:20:32.841 : en:02:20:32.841
02:25:27.260 : en:02:25:27.260
-Скриншоты:




Время раздачи: с 10:00 до 24:00 ежедневно

[Цитировать]



Показать сообщения:    

Текущее время: 29-Апр 21:38

Часовой пояс: UTC + 6


Вы не можете начинать темы
Вы не можете отвечать на сообщения
Вы не можете редактировать свои сообщения
Вы не можете удалять свои сообщения
Вы не можете голосовать в опросах
Вы не можете прикреплять файлы к сообщениям
Вы не можете скачивать файлы

!ВНИМАНИЕ!
Сайт не предоставляет электронные версии произведений, а занимается лишь коллекционированием и каталогизацией ссылок, присылаемых и публикуемых на форуме нашими читателями. Если вы являетесь правообладателем какого-либо представленного материала и не желаете, чтобы ссылка на него находилась в нашем каталоге, свяжитесь с нами, и мы незамедлительно удалим ее. Файлы для обмена на трекере предоставлены пользователями сайта, и администрация не несет ответственности за их содержание. Просьба не заливать файлы, защищенные авторскими правами, а также файлы нелегального содержания!