[ Сегодня идет свободное скачивание без начисления Download ]


Статистика раздачи
Нет
 
   
 
Top  
 
 
-Halo 4: Идущий к рассвету / Halo 4: Forward Unto Dawn (2012) BDRemux- Русское название: Halo 4: Идущий к рассвету
Оригинальное название: Halo 4: Forward Unto Dawn
Год выпуска: 2012
Производство: Vancouver / British Columbia / 343 Industries [США]
Жанр: Фантастика, Боевик
Перевод: Многоголосый закадровый, любительский
Озвучка / Автор перевода: StopGame
Язык субтитров: Английский (PGS)
В НАЧАЛЕ ОТСУТСТВУЕТ ОКОЛО 5 МИНУТ ПЕРЕВОДА
Дата мировой премьеры: 5 октября 2012
Дата российской премьеры: Неизвестно
Режиссер: Стюарт Хендлер
Актеры: Айэйн Белчер, Осрик Чау, Дэниэл Кадмор, Майк Допуд, Стив Даунс, Том Грин, Масам Холден, Анна Попплуэлл, Крис Шилдс
Описание фильма:
Эта история возвращает игроков к началу войны между людьми и Ковенантами и подводит к событиям, происходящим в игре Halo 4. В стенах военной академии Космического Командования Объединённых Наций (UNSC) группу курсантов знатного происхождения готовят стать следующим поколением солдат в надвигающейся войне между UNCS и повстанцами на колониальных планетах. Один из кадетов, Томас Ласки, ведет внутреннюю борьбу, преодолевая сомнения по поводу войны и опасения не оправдать высоких ожиданий командования. К тому моменту, как Ласки смирился со своей ролью будущего командира, ужасающее войско альянса Ковенант вторгается на планету и переворачивает привычный мир героя с ног на голову. Вдохновлённый подвигами Мастера Чифа, Ласки должен на собственном опыте узнать, что значит быть героем.

Продолжительность: 01:31:23
Качество видео: BDRemux-Видеокодек: MPEG-4 AVC/H.264
Битрейт видео: ~25902 kbps
Размер кадра: 1920 x 1080
Аудио 1: Русский, AC3 2.0, 192 kbps, 48 kHz (MVO)
Аудио 2: Английский, DTS-HD MA 5.1, 2161 kbps, 48 kHz (Оригинал)
Аудио 3: Английский, AC3 2.0, 192 kbps, 48 kHz (Комментарий)
Аудио 4: Английский, AC3 2.0, 192 kbps, 48 kHz (Комментарий)
Аудио 5: Английский, AC3 2.0, 192 kbps, 48 kHz (Комментарий)-Сэмпл: Скачать-

Знаете ли вы, что...

28 апреля 2012 года съемки сериала начались в Канаде, в Ванкувере, в расположении Университета имени Саймона Фрейзера, где снимались такие фантастические сериалы, как «Звёздные врата: SG-1» и «Звездный крейсер «Галактика».
-

BV

-

MediaInfo:

Общее
Уникальный идентификатор : 177612269598290548163543823186079679899 (0x859EE0FC60EF7863810CACD62812859B)
Полное имя : D:\Films\Halo_4_Forward_Unto_Dawn.2012.1080p.BDRemux.mkv
Формат : Matroska
Версия формата : Version 2
Размер файла : 18,4 Гбайт
Продолжительность : 1 ч. 31 м.
Режим общего битрейта : Переменный
Общий поток : 28,8 Мбит/сек
Название фильма : Halo 4: Forward Unto Dawn
Дата кодирования : UTC 2012-11-20 04:02:37
Программа кодирования : mkvmerge v5.2.0 ('I can't explain') built on Dec 18 2011 18:12:03
Библиотека кодирования : libebml v1.2.3 + libmatroska v1.3.0
Видео
Идентификатор : 1
Формат : AVC
Формат/Информация : Advanced Video Codec
Профиль формата : High@L4.1
Параметр CABAC формата : Да
Параметр ReFrames формата : 4 кадра
Идентификатор кодека : V_MPEG4/ISO/AVC
Продолжительность : 1 ч. 31 м.
Вид битрейта : Переменный
Битрейт : 25,9 Мбит/сек
Максимальный битрейт : 35,0 Мбит/сек
Ширина : 1920 пикселей
Высота : 1080 пикселей
Соотношение сторон : 16:9
Частота кадров : 23,976 кадра/сек
Стандарт вещания : NTSC
Цветовое пространство : YUV
Субдискретизация насыщенности : 4:2:0
Битовая глубина : 8 бит
Тип развёртки : Прогрессивная
Бит/(Пиксели*Кадры) : 0.522
Размер потока : 16,6 Гбайт (90%)
Язык : English
Default : Да
Forced : Нет
Основные цвета : BT.709-5, BT.1361, IEC 61966-2-4, SMPTE RP177
Характеристики трансфера : BT.709-5, BT.1361
Коэффициенты матрицы : BT.709-5, BT.1361, IEC 61966-2-4 709, SMPTE RP177
Аудио #1
Идентификатор : 2
Формат : AC-3
Формат/Информация : Audio Coding 3
Расширение режима : CM (complete main)
Параметр Endianness формата : Big
Идентификатор кодека : A_AC3
Продолжительность : 1 ч. 31 м.
Вид битрейта : Постоянный
Битрейт : 192 Кбит/сек
Каналы : 2 канала
Расположение каналов : Front: L R
Частота : 48,0 КГц
Битовая глубина : 16 бит
Метод сжатия : С потерями
Размер потока : 126 Мбайт (1%)
Заголовок : MVO StopGame
Язык : Russian
Default : Да
Forced : Нет
Аудио #2
Идентификатор : 3
Формат : DTS
Формат/Информация : Digital Theater Systems
Профиль формата : MA / Core
Идентификатор кодека : A_DTS
Продолжительность : 1 ч. 31 м.
Вид битрейта : Переменный
Битрейт : 1561 Кбит/сек / 1510 Кбит/сек
Каналы : 6 каналов
Расположение каналов : Front: L C R, Side: L R, LFE
Частота : 48,0 КГц
Битовая глубина : 16 бит
Метод сжатия : Без потерь / Lossy
Заголовок : Lossless
Язык : English
Default : Нет
Forced : Нет
Аудио #3
Идентификатор : 4
Формат : AC-3
Формат/Информация : Audio Coding 3
Расширение режима : CM (complete main)
Параметр Endianness формата : Big
Идентификатор кодека : A_AC3
Продолжительность : 1 ч. 31 м.
Вид битрейта : Постоянный
Битрейт : 192 Кбит/сек
Каналы : 2 канала
Расположение каналов : Front: L R
Частота : 48,0 КГц
Битовая глубина : 16 бит
Метод сжатия : С потерями
Размер потока : 126 Мбайт (1%)
Заголовок : Commentary
Язык : English
Default : Нет
Forced : Нет
Аудио #4
Идентификатор : 5
Формат : AC-3
Формат/Информация : Audio Coding 3
Расширение режима : CM (complete main)
Параметр Endianness формата : Big
Идентификатор кодека : A_AC3
Продолжительность : 1 ч. 31 м.
Вид битрейта : Постоянный
Битрейт : 192 Кбит/сек
Каналы : 2 канала
Расположение каналов : Front: L R
Частота : 48,0 КГц
Битовая глубина : 16 бит
Метод сжатия : С потерями
Размер потока : 126 Мбайт (1%)
Заголовок : Commentary
Язык : English
Default : Нет
Forced : Нет
Аудио #5
Идентификатор : 6
Формат : AC-3
Формат/Информация : Audio Coding 3
Расширение режима : CM (complete main)
Параметр Endianness формата : Big
Идентификатор кодека : A_AC3
Продолжительность : 1 ч. 31 м.
Вид битрейта : Постоянный
Битрейт : 192 Кбит/сек
Каналы : 2 канала
Расположение каналов : Front: L R
Частота : 48,0 КГц
Битовая глубина : 16 бит
Метод сжатия : С потерями
Размер потока : 126 Мбайт (1%)
Заголовок : Commentary
Язык : English
Default : Нет
Forced : Нет
Текст
Идентификатор : 7
Формат : PGS
Режим смешивания : zlib
Идентификатор кодека : S_HDMV/PGS
Идентификатор кодека/Информация : The same subtitle format used on BDs/HD-DVDs
Язык : English
Default : Нет
Forced : Нет
Меню
00:00:00.000 : en:Chapter 00
00:04:14.545 : en:Chapter 01
00:07:44.464 : en:Chapter 02
00:08:31.928 : en:Chapter 03
00:12:39.967 : en:Chapter 04
00:16:24.692 : en:Chapter 05
00:20:13.212 : en:Chapter 06
00:25:52.968 : en:Chapter 07
00:28:22.200 : en:Chapter 08
00:31:57.206 : en:Chapter 09
00:36:17.842 : en:Chapter 10
00:40:53.868 : en:Chapter 11
00:44:32.461 : en:Chapter 12
00:46:29.495 : en:Chapter 13
00:49:45.440 : en:Chapter 14
00:53:58.401 : en:Chapter 15
00:57:03.086 : en:Chapter 16
01:03:23.132 : en:Chapter 17
01:08:56.257 : en:Chapter 18
01:12:07.156 : en:Chapter 19
01:18:15.357 : en:Chapter 20
01:24:02.078 : en:Chapter 21
-Скриншоты:
-Время раздачи: С 8:00 до 22:00 до 5 скачавших

[Цитировать]



Показать сообщения:    

Текущее время: 07-Дек 19:26

Часовой пояс: UTC + 3


Вы не можете начинать темы
Вы не можете отвечать на сообщения
Вы не можете редактировать свои сообщения
Вы не можете удалять свои сообщения
Вы не можете голосовать в опросах
Вы не можете прикреплять файлы к сообщениям
Вы не можете скачивать файлы

!ВНИМАНИЕ!
Сайт не предоставляет электронные версии произведений, а занимается лишь коллекционированием и каталогизацией ссылок, присылаемых и публикуемых на форуме нашими читателями. Если вы являетесь правообладателем какого-либо представленного материала и не желаете, чтобы ссылка на него находилась в нашем каталоге, свяжитесь с нами, и мы незамедлительно удалим ее. Файлы для обмена на трекере предоставлены пользователями сайта, и администрация не несет ответственности за их содержание. Просьба не заливать файлы, защищенные авторскими правами, а также файлы нелегального содержания!