[ Сегодня идет свободное скачивание без начисления Download ]


Статистика раздачи
Нет
 
   
 
Top  
 
 
-Пандорум / Pandorum (2009) BDRip-Не бойся конца света, бойся того, что будет потом- Русское название: Пандорум
Оригинальное название: Pandorum
Год выпуска: 2009
Жанр: Фантастика, Боевик, Триллер
Выпущено: Германия, Великобритания
Описание фильма:
В безднах космоса движется звездолет. Два члена команды, пробудившиеся от гиперсна, оказываются в сложной ситуации: оборудование не работает, вспомнить они ничего не могут. Какова была их миссия? Сколько времени прошло? Где они? Кто они? На все эти вопросы у них нет ответов. К тому же, на корабле обнаруживаются чужие - злобные воины, которые крушат все на своем пути.
У космических путешественников очень мало времени. Теперь для них собственные жизни - не самое главное, ибо только от них двоих, возможно, зависит спасение человечества. Нужно любой ценой восстановить управление кораблем, пока загадочный Пандорум не взял власть в свои руки.
Режиссер: Кристиан Алверт
Актеры: Деннис Куэйд, Бен Фостер, Кэм Жиганде, Антье Трое, Кунг Ле, Эдди Роус, Норман Ридус, Андре Хеннике, Фридерике Кемптер, Нильс-Бруно Шмидт
Продолжительность: 01:48:05
Перевод: Дублированный, Авторский (одноголосый закадровый)*3шт.
Субтитры: русские, английские-
Дата мировой премьеры: 25 сентября 2009
Дата премьеры (РФ): 15 октября 2009, «Top Film Distribution»
Релиз на DVD (РФ): 12 ноября 2009, «Новый Диск», «New Dream media»
Рейтинг R - Детям до 17 лет обязательно присутствие родителей-Релиз от:
Качество видео: BDRip [batonchik]
Контейнер: MKV
Видео: MPEG-4 AVC/H.264 / 11,0 Мбит/сек, 1920x816p / 23,976 fps / 16:9 / High Profile 4.1
Аудио:
Аудио 1: [Русский] 48 kHz, DTS-HD HR 5.1, 24 bit, 2046 kbps (core: DTS 5.1, 48 kHz, 24 bit, 1536 kbps) |Дубляж с BD от С. Р. И.|
Аудио 2: [Русский] 48 kHz, DTS, 3/2 (L,C,R,l,r) + LFE ch, ~1510.00 kbps avg |Одноголосый закадровый, А.Гаврилов|
Аудио 2: [Русский] 48 kHz, DTS, 3/2 (L,C,R,l,r) + LFE ch, ~1510.00 kbps avg |Одноголосый закадровый, Ю.Живов|
Аудио 2: [Русский] 48 kHz, DTS, 3/2 (L,C,R,l,r) + LFE ch, ~1510.00 kbps avg |Одноголосый закадровый, Ю.Немахов|
Аудио 3: [Английский] 48 kHz, DTS, 3/2 (L,C,R,l,r) + LFE ch, ~1510.00 kbps avg |Оригинал|
-Главы: 16 шт. (подписанные)

H.264 log

--[Information] [15.11.2012 9:51:51] Standard error stream
---[NoImage] raw [info]: 1920x816p 1:1 @ 24000/1001 fps (cfr)
---[NoImage] x264 [info]: using SAR=1/1
---[NoImage] x264 [info]: using cpu capabilities: MMX2 SSE2Fast SSSE3 FastShuffle SSE4.2 AVX
---[NoImage] x264 [info]: profile High, level 4.1
---[NoImage]
---[NoImage] x264 [info]: frame I:1152 Avg QP:16.40 size:217206
---[NoImage] x264 [info]: frame P:35169 Avg QP:18.96 size: 85467
---[NoImage] x264 [info]: frame B:119175 Avg QP:20.80 size: 47461

---[NoImage] x264 [info]: consecutive B-frames: 3.3% 4.1% 7.2% 28.6% 10.2% 14.2% 6.0% 22.3% 2.9% 1.2%
---[NoImage] x264 [info]: mb I I16..4: 11.8% 68.6% 19.5%
---[NoImage] x264 [info]: mb P I16..4: 5.2% 28.3% 2.2% P16..4: 36.1% 12.5% 8.2% 0.5% 0.1% skip: 6.8%
---[NoImage] x264 [info]: mb B I16..4: 0.6% 5.9% 0.3% B16..8: 43.1% 14.3% 2.8% direct: 8.8% skip:24.1% L0:43.1% L1:39.9% BI:17.0%
---[NoImage] x264 [info]: 8x8 transform intra:81.5% inter:52.5%
---[NoImage] x264 [info]: direct mvs spatial:96.9% temporal:3.1%
---[NoImage] x264 [info]: coded y,uvDC,uvAC intra: 85.6% 85.6% 67.9% inter: 36.9% 32.4% 11.0%
---[NoImage] x264 [info]: i16 v,h,dc,p: 29% 10% 15% 46%
---[NoImage] x264 [info]: i8 v,h,dc,ddl,ddr,vr,hd,vl,hu: 7% 7% 14% 11% 13% 11% 12% 11% 13%
---[NoImage] x264 [info]: i4 v,h,dc,ddl,ddr,vr,hd,vl,hu: 9% 11% 8% 9% 13% 11% 13% 10% 15%
---[NoImage] x264 [info]: i8c dc,h,v,p: 51% 17% 15% 17%
---[NoImage] x264 [info]: Weighted P-Frames: Y:5.5% UV:4.0%
---[NoImage] x264 [info]: ref P L0: 46.7% 6.3% 25.4% 10.9% 9.4% 1.3% 0.1%
---[NoImage] x264 [info]: ref B L0: 74.1% 17.9% 6.4% 1.6%
---[NoImage] x264 [info]: ref B L1: 90.9% 9.1%
---[NoImage] x264 [info]: kb/s:10993.46
---[NoImage] encoded 155496 frames, 5.30 fps, 10993.46 kb/s
--[Information] Final statistics
---[Information] [15.11.2012 9:51:52] Video Bitrate Desired: 11000 kbit/s
---[Information] [15.11.2012 9:51:52] Video Bitrate Obtained (approximate): 10995 kbit/s

MediaInfo 0.7.61

Общее
Уникальный идентификатор : 239195935517151674386468325434138134629 (0xB3F3762379D807D3AB4F779F0A1D8865)
Полное имя :\Pandorum (2009) BDRip.1080p.NNM-CLUB.mkv
Формат : Matroska
Версия формата : Version 2
Размер файла : 14,4 Гбайт
Продолжительность : 1 ч. 48 м.
Общий поток : 19,1 Мбит/сек
Название фильма : Pandorum (2009) BDRip.1080p.NNM-CLUB
Дата кодирования : UTC 2012-11-15 10:03:11
Программа кодирования : mkvmerge v5.8.0 ('No Sleep / Pillow') built on Sep 2 2012 15:37:04
Библиотека кодирования : libebml v1.2.3 + libmatroska v1.3.0
Attachment : Yes
Видео
Идентификатор : 1
Формат : AVC
Формат/Информация : Advanced Video Codec
Профиль формата : High@L4.1
Параметр CABAC формата : Да
Параметр ReFrames формата : 5 кадров
Идентификатор кодека : V_MPEG4/ISO/AVC
Продолжительность : 1 ч. 48 м.
Битрейт : 11,0 Мбит/сек
Ширина : 1920 пикселей
Высота : 816 пикселей
Соотношение сторон : 2,35:1
Режим частоты кадров : Постоянный
Частота кадров : 23,976 кадра/сек
Цветовое пространство : YUV
Субдискретизация насыщенности : 4:2:0
Битовая глубина : 8 бит
Тип развёртки : Прогрессивная
Бит/(Пиксели*Кадры) : 0.293
Размер потока : 8,02 Гбайт (56%)
Заголовок : Pandorum (2009) BDRip.1080p.NNM-CLUB.mkv
Библиотека кодирования : x264 core 125 r2200 999b753
Настройки программы : cabac=1 / ref=5 / deblock=1:-3:-3 / analyse=0x3:0x133 / me=umh / subme=10 / psy=1 / psy_rd=0.40:0.00 / mixed_ref=1 / me_range=32 / chroma_me=1 / trellis=2 / 8x8dct=1 / cqm=0 / deadzone=21,11 / fast_pskip=0 / chroma_qp_offset=-2 / threads=12 / lookahead_threads=2 / sliced_threads=0 / nr=0 / decimate=1 / interlaced=0 / bluray_compat=0 / constrained_intra=0 / bframes=9 / b_pyramid=2 / b_adapt=2 / b_bias=0 / direct=3 / weightb=0 / open_gop=0 / weightp=2 / keyint=240 / keyint_min=22 / scenecut=40 / intra_refresh=0 / rc_lookahead=40 / rc=2pass / mbtree=1 / bitrate=11000 / ratetol=1.0 / qcomp=0.60 / qpmin=0 / qpmax=69 / qpstep=4 / cplxblur=20.0 / qblur=0.5 / ip_ratio=1.40 / aq=1:0.90
Язык : English
Default : Да
Forced : Нет
Аудио #1
Идентификатор : 2
Формат : DTS
Формат/Информация : Digital Theater Systems
Профиль формата : HRA / Core
Идентификатор кодека : A_DTS
Продолжительность : 1 ч. 48 м.
Вид битрейта : Постоянный
Битрейт : 2047 Кбит/сек / 1510 Кбит/сек
Каналы : 6 каналов
Расположение каналов : Front: L C R, Side: L R, LFE
Частота : 48,0 КГц
Битовая глубина : 24 бит
Метод сжатия : С потерями
Размер потока : 1,55 Гбайт (11%)
Заголовок : Дубляж с BD от С. Р. И.
Язык : Russian
Default : Да
Forced : Нет
Аудио #2
Идентификатор : 3
Формат : DTS
Формат/Информация : Digital Theater Systems
Идентификатор кодека : A_DTS
Продолжительность : 1 ч. 48 м.
Вид битрейта : Постоянный
Битрейт : 1510 Кбит/сек
Каналы : 6 каналов
Расположение каналов : Front: L C R, Side: L R, LFE
Частота : 48,0 КГц
Битовая глубина : 24 бит
Метод сжатия : С потерями
Размер потока : 1,14 Гбайт (8%)
Заголовок : А.Гаврилов
Язык : Russian
Default : Нет
Forced : Нет
Аудио #3
Идентификатор : 4
Формат : DTS
Формат/Информация : Digital Theater Systems
Идентификатор кодека : A_DTS
Продолжительность : 1 ч. 48 м.
Вид битрейта : Постоянный
Битрейт : 1510 Кбит/сек
Каналы : 6 каналов
Расположение каналов : Front: L C R, Side: L R, LFE
Частота : 48,0 КГц
Битовая глубина : 24 бит
Метод сжатия : С потерями
Размер потока : 1,14 Гбайт (8%)
Заголовок : Ю.Живов
Язык : Russian
Default : Нет
Forced : Нет
Аудио #4
Идентификатор : 5
Формат : DTS
Формат/Информация : Digital Theater Systems
Идентификатор кодека : A_DTS
Продолжительность : 1 ч. 48 м.
Вид битрейта : Постоянный
Битрейт : 1510 Кбит/сек
Каналы : 6 каналов
Расположение каналов : Front: L C R, Side: L R, LFE
Частота : 48,0 КГц
Битовая глубина : 24 бит
Метод сжатия : С потерями
Размер потока : 1,14 Гбайт (8%)
Заголовок : Ю.Немахов
Язык : Russian
Default : Нет
Forced : Нет
Аудио #5
Идентификатор : 6
Формат : DTS
Формат/Информация : Digital Theater Systems
Идентификатор кодека : A_DTS
Продолжительность : 1 ч. 48 м.
Вид битрейта : Постоянный
Битрейт : 1510 Кбит/сек
Каналы : 6 каналов
Расположение каналов : Front: L C R, Side: L R, LFE
Частота : 48,0 КГц
Битовая глубина : 24 бит
Метод сжатия : С потерями
Размер потока : 1,14 Гбайт (8%)
Язык : English
Default : Нет
Forced : Нет
Текст #1
Идентификатор : 7
Формат : UTF-8
Идентификатор кодека : S_TEXT/UTF8
Идентификатор кодека/Информация : UTF-8 Plain Text
Язык : Russian
Default : Нет
Forced : Нет
Текст #2
Идентификатор : 8
Формат : UTF-8
Идентификатор кодека : S_TEXT/UTF8
Идентификатор кодека/Информация : UTF-8 Plain Text
Язык : English
Default : Нет
Forced : Нет
Меню
00:00:00.000 : en:Home Invasion
00:02:56.426 : en:What You Can Prove in Court
00:07:46.257 : en:Lethal Injection
00:12:18.237 : en:You Can't Fight Fate
00:18:03.165 : en:Taken Into Custody
00:28:38.633 : en:Make the Deal
00:36:41.699 : en:Contempt of Court
00:44:31.126 : en:Steak with All the Trimmings
00:50:09.339 : en:Born Tactician
00:57:23.314 : en:This Broken Thing
00:59:31.985 : en:It's Gonna Be Biblical
01:03:38.898 : en:City Under Siege
01:12:13.078 : en:Subterranean Passage
01:25:28.081 : en:Center of Gravity
01:36:48.677 : en:I Don't Make Deals with Murderers
01:41:26.205 : en:End Credits

Знаете ли Вы, что...

Фильм снимался на знаменитой студии Бабельсберг в Берлине, где ещё Фриц Ланг создавал свой «Метрополис».
На Западе фильм показывали в кинотеатрах с поддержкой D-Box. Это система вибраций и движений, которая монтируется в кресло и позволяет глубже погрузится в действие.
Скриншоты:




Время раздачи: круглогодичноИграю на аккордеоне за "Спасибо"

[Цитировать]



Показать сообщения:    

Текущее время: 10-Дек 08:04

Часовой пояс: UTC + 3


Вы не можете начинать темы
Вы не можете отвечать на сообщения
Вы не можете редактировать свои сообщения
Вы не можете удалять свои сообщения
Вы не можете голосовать в опросах
Вы не можете прикреплять файлы к сообщениям
Вы не можете скачивать файлы

!ВНИМАНИЕ!
Сайт не предоставляет электронные версии произведений, а занимается лишь коллекционированием и каталогизацией ссылок, присылаемых и публикуемых на форуме нашими читателями. Если вы являетесь правообладателем какого-либо представленного материала и не желаете, чтобы ссылка на него находилась в нашем каталоге, свяжитесь с нами, и мы незамедлительно удалим ее. Файлы для обмена на трекере предоставлены пользователями сайта, и администрация не несет ответственности за их содержание. Просьба не заливать файлы, защищенные авторскими правами, а также файлы нелегального содержания!