[ Сегодня идет свободное скачивание без начисления Download ]


Статистика раздачи
Нет
 
   
 
Top  
 
 
-Ненависть / La Haine (1995) BDRip-«Пока всё хорошо...»- Русское название: Ненависть
Оригинальное название: La Haine
Год выпуска: 1995
Производство: Франция / Canal+
Жанр: Драма, Криминал
Описание фильма:
Фильм, шокирующий своей откровенностью в изображении жизни современной молодежи. Что делать, когда полиция жестоко расправляется с твоим другом? Что делать, когда ненависть разрывает тебя на части? Что делать, когда в душе лишь жажда мести, а в твоих руках пистолет? Ненависть порождает ненависть.
Мальчишка-араб по имени Абдель сильно пострадал от парижского полицейского во время допроса и попал в больницу, после чего в районе, где он проживал, начались волнения среди разношёрстной по своему составу молодёжи, которая вступила в обострённый конфликт с представителями правопорядка. Трое молодых друзей (еврей Винз, выходец из рабочей семьи, чрезвычайно переменчивый в своих настроениях; африканец-боксёр Юбер, который представляется самым умным и уравновешенным из них; араб Саид, моложе остальных, но уже озлобленнее) также не могут остаться в стороне от той ненависти, что охватывает многонациональных обитателей бедных кварталов Парижа.

Режиссер: Матьё Кассовиц
Актеры: Венсан Кассель, Юбер Кунде, Саид Тагмауи, Карим Бельхадра, Франсуа Леванталь, Эдуард Монтут, Бенуа Мажимель, Венсан Линдон, Карин Виар, Петер Кассовиц
Продолжительность: 01:37:31
Перевод: Многоголосый закадровый, Одноголосый закадровый
Язык субтитров: Русский, Английский
-Видеокодек: MPEG-4 AVC/H.264
Битрейт видео: ~4906 kbps
Размер кадра: 1280 x 688
Качество видео: BDRip
Аудиокодек: AC3 / DTS
Аудио 1: Русский, AC3 2.0, 192 kbps, 48 kHz (MVO, Студия Нота для РТР)
Аудио 2: Русский, AC3 5.1, 384 kbps, 48 kHz (MVO, ОРТ)
Аудио 3: Русский, AC3 5.1, 384 kbps, 48 kHz (VO, Алексей Л.)
Аудио 4: Русский, AC3 5.1, 384 kbps, 48 kHz (VO, Andreas)
Аудио 5: Русский, AC3 2.0, 192 kbps, 48 kHz (VO, Алексей «Алаб» Артемьев)
Аудио 6: Французский, DTS 5.1, 1510 kbps, 48 kHz (Оригинал)-Сэмпл: Ссылка-

Награды:

Сезар, 1996 год
Победитель (3):
Лучший фильм
Лучший монтаж
Лучший продюсер (Христоф Россигнон)
Номинации (8):
Самый многообещающий актер (Юбер Кунде)
Самый многообещающий актер (Саид Тагмауи)
Самый многообещающий актер (Венсан Кассель)
Лучший актер (Венсан Кассель)
Лучший режиссер (Матьё Кассовиц)
Лучший адаптированный или оригинальный сценарий
Лучшая работа оператора
Лучший звук
Каннский кинофестиваль, 1995 год
Победитель (1):
Лучший режиссер (Матьё Кассовиц)
Номинации (1):
Золотая пальмовая ветвь
Европейская киноакадемия, 1995 год
Победитель (1):
Лучший фильм молодого режиссера
-

Из книги «3500 кинорецензий»

Социальная молодёжная драма
Мальчишка-араб по имени Абдель сильно пострадал от парижского полицейского во время допроса и попал в больницу, после чего в районе, где он проживал, начались волнения среди разношёрстной по своему составу молодёжи, которая вступила в обострённый конфликт с представителями правопорядка. Трое молодых друзей (еврей Винз, выходец из рабочей семьи, чрезвычайно переменчивый в своих настроениях; африканец-боксёр Юбер, который представляется самым умным и уравновешенным из них; араб Саид, моложе остальных, но уже озлобленнее) также не могут остаться в стороне от той ненависти, что охватывает многонациональных обитателей бедных кварталов Парижа.
Принципиально снятая на чёрно-белой плёнке и смонтированная в чрезвычайно нервном ритме лента Матьё Кассовица, 27-летнего французского режиссёра, а также актёра, который исполнил в «Ненависти» роль молодого скинхеда, вполне может кого-то раздражать своим резким и порой жестоким показом междоусобных битв, происходящих во французской столице вдали от привычных туристических маршрутов. Это неведомый для многих, совсем иной мир Парижа, заселённый преимущественно арабами, которые нередко настроены враждебно по отношению к властям и особенно ненавидят полицейских, оказывая им яростное сопротивление. И то, что показал Кассовиц на экране, на целых десять лет предвосхитило массовые волнения арабской молодёжи во Франции.
Однако несомненный талант постановщика, прежде всего — мощная энергетика и неистребимая витальность повествования, позволяют увидеть в этом как бы сиюминутном репортаже из горячей точки, которая находится вовсе не в одной из стран так называемого «третьего мира», а в центре крупного европейского государства, истинную притчу о так и не преодолённой в течение многих веков человеческой нетерпимости. Картина Кассовица, вторая по счёту в его режиссёрской биографии, получила несколько престижных премий, в том числе — на Каннском фестивале за режиссуру, а также «Сезар» за лучший фильм года (вообще-то номинировалась на приз Французской киноакадемии в одиннадцати категориях!).
1999/2007
-

BV

-

MediaInfo:

Общее
Уникальный идентификатор : 220732147879688482923433472409870728658 (0xA60F771FCDD2354BA0A098C1E912FDD2)
Полное имя : D:\Films\La.Haine.1995.720p.BDRip.mkv
Формат : Matroska
Версия формата : Version 2
Размер файла : 5,42 Гбайт
Продолжительность : 1 ч. 37 м.
Общий поток : 7938 Кбит/сек
Дата кодирования : UTC 2012-11-13 12:05:16
Программа кодирования : mkvmerge v5.2.0 ('I can't explain') built on Dec 18 2011 18:12:03
Библиотека кодирования : libebml v1.2.3 + libmatroska v1.3.0
Видео
Идентификатор : 1
Формат : AVC
Формат/Информация : Advanced Video Codec
Профиль формата : High@L4.1
Параметр CABAC формата : Да
Параметр ReFrames формата : 8 кадров
Идентификатор кодека : V_MPEG4/ISO/AVC
Продолжительность : 1 ч. 37 м.
Битрейт : 4906 Кбит/сек
Ширина : 1280 пикселей
Высота : 688 пикселей
Соотношение сторон : 1,85:1
Частота кадров : 23,976 кадра/сек
Цветовое пространство : YUV
Субдискретизация насыщенности : 4:2:0
Битовая глубина : 8 бит
Тип развёртки : Прогрессивная
Бит/(Пиксели*Кадры) : 0.232
Размер потока : 3,23 Гбайт (60%)
Библиотека кодирования : x264 core 67 r1127M 8d82fec
Настройки программы : cabac=1 / ref=8 / deblock=1:-3:-3 / analyse=0x3:0x133 / me=umh / subme=7 / psy_rd=1.2:0.0 / mixed_ref=1 / me_range=32 / chroma_me=1 / trellis=2 / 8x8dct=1 / cqm=0 / deadzone=21,11 / chroma_qp_offset=-2 / threads=6 / nr=0 / decimate=1 / mbaff=0 / bframes=16 / b_pyramid=1 / b_adapt=1 / b_bias=0 / direct=3 / wpredb=1 / keyint=250 / keyint_min=25 / scenecut=40 / rc=2pass / bitrate=4906 / ratetol=1.0 / qcomp=0.60 / qpmin=10 / qpmax=51 / qpstep=4 / cplxblur=20.0 / qblur=0.5 / ip_ratio=1.40 / pb_ratio=1.30 / aq=1:1.20
Язык : English
Default : Да
Forced : Нет
Аудио #1
Идентификатор : 2
Формат : AC-3
Формат/Информация : Audio Coding 3
Расширение режима : CM (complete main)
Параметр Endianness формата : Big
Идентификатор кодека : A_AC3
Продолжительность : 1 ч. 37 м.
Вид битрейта : Постоянный
Битрейт : 192 Кбит/сек
Каналы : 2 канала
Расположение каналов : Front: L R
Частота : 48,0 КГц
Битовая глубина : 16 бит
Метод сжатия : С потерями
Размер потока : 134 Мбайт (2%)
Заголовок : MVO Студия Нота для РТР
Язык : Russian
Default : Да
Forced : Нет
Аудио #2
Идентификатор : 3
Формат : AC-3
Формат/Информация : Audio Coding 3
Расширение режима : CM (complete main)
Параметр Endianness формата : Big
Идентификатор кодека : A_AC3
Продолжительность : 1 ч. 37 м.
Вид битрейта : Постоянный
Битрейт : 384 Кбит/сек
Каналы : 6 каналов
Расположение каналов : Front: L C R, Side: L R, LFE
Частота : 48,0 КГц
Битовая глубина : 16 бит
Метод сжатия : С потерями
Размер потока : 268 Мбайт (5%)
Заголовок : MVO ОРТ
Язык : Russian
Default : Нет
Forced : Нет
Аудио #3
Идентификатор : 4
Формат : AC-3
Формат/Информация : Audio Coding 3
Расширение режима : CM (complete main)
Параметр Endianness формата : Big
Идентификатор кодека : A_AC3
Продолжительность : 1 ч. 37 м.
Вид битрейта : Постоянный
Битрейт : 384 Кбит/сек
Каналы : 6 каналов
Расположение каналов : Front: L C R, Side: L R, LFE
Частота : 48,0 КГц
Битовая глубина : 16 бит
Метод сжатия : С потерями
Размер потока : 268 Мбайт (5%)
Заголовок : VO Алексей Л.
Язык : Russian
Default : Нет
Forced : Нет
Аудио #4
Идентификатор : 5
Формат : AC-3
Формат/Информация : Audio Coding 3
Расширение режима : CM (complete main)
Параметр Endianness формата : Big
Идентификатор кодека : A_AC3
Продолжительность : 1 ч. 37 м.
Вид битрейта : Постоянный
Битрейт : 384 Кбит/сек
Каналы : 6 каналов
Расположение каналов : Front: L C R, Side: L R, LFE
Частота : 48,0 КГц
Битовая глубина : 16 бит
Метод сжатия : С потерями
Размер потока : 268 Мбайт (5%)
Заголовок : VO Andreas
Язык : Russian
Default : Нет
Forced : Нет
Аудио #5
Идентификатор : 6
Формат : AC-3
Формат/Информация : Audio Coding 3
Расширение режима : CM (complete main)
Параметр Endianness формата : Big
Идентификатор кодека : A_AC3
Продолжительность : 1 ч. 37 м.
Вид битрейта : Постоянный
Битрейт : 192 Кбит/сек
Каналы : 2 канала
Расположение каналов : Front: L R
Частота : 48,0 КГц
Битовая глубина : 16 бит
Метод сжатия : С потерями
Размер потока : 134 Мбайт (2%)
Заголовок : VO Алексей «Алаб» Артемьев
Язык : Russian
Default : Нет
Forced : Нет
Аудио #6
Идентификатор : 7
Формат : DTS
Формат/Информация : Digital Theater Systems
Идентификатор кодека : A_DTS
Продолжительность : 1 ч. 37 м.
Вид битрейта : Постоянный
Битрейт : 1510 Кбит/сек
Каналы : 6 каналов
Расположение каналов : Front: L C R, Side: L R, LFE
Частота : 48,0 КГц
Битовая глубина : 16 бит
Метод сжатия : С потерями
Размер потока : 1,03 Гбайт (19%)
Язык : French
Default : Нет
Forced : Нет
Текст #1
Идентификатор : 8
Формат : UTF-8
Идентификатор кодека : S_TEXT/UTF8
Идентификатор кодека/Информация : UTF-8 Plain Text
Язык : Russian
Default : Нет
Forced : Нет
Текст #2
Идентификатор : 9
Формат : UTF-8
Идентификатор кодека : S_TEXT/UTF8
Идентификатор кодека/Информация : UTF-8 Plain Text
Язык : English
Default : Нет
Forced : Нет
-Скриншоты:
-Время раздачи: С 8:00 до 22:00 до 5 скачавших

[Цитировать]



Показать сообщения:    

Текущее время: 10-Дек 00:26

Часовой пояс: UTC + 3


Вы не можете начинать темы
Вы не можете отвечать на сообщения
Вы не можете редактировать свои сообщения
Вы не можете удалять свои сообщения
Вы не можете голосовать в опросах
Вы не можете прикреплять файлы к сообщениям
Вы не можете скачивать файлы

!ВНИМАНИЕ!
Сайт не предоставляет электронные версии произведений, а занимается лишь коллекционированием и каталогизацией ссылок, присылаемых и публикуемых на форуме нашими читателями. Если вы являетесь правообладателем какого-либо представленного материала и не желаете, чтобы ссылка на него находилась в нашем каталоге, свяжитесь с нами, и мы незамедлительно удалим ее. Файлы для обмена на трекере предоставлены пользователями сайта, и администрация не несет ответственности за их содержание. Просьба не заливать файлы, защищенные авторскими правами, а также файлы нелегального содержания!