[ Сегодня идет свободное скачивание без начисления Download ]


Статистика раздачи
Нет
 
   
 
Top  
 
 
-Большая вечеринка / Le grand soir (2012) BDRip
«Комедия в стиле панк»
- Русское название: Большая вечеринка
Оригинальное название: Le grand soir
Год выпуска: 2012
Производство: Франция, Бельгия
Жанр: Драма, Комедия
Перевод: Многоголосый закадровый, профессиональный [Лицензия]
Субтитры: Отсутствуют-Дата мировой премьеры: 22 мая 2012
Дата российской премьеры: 27 сентября 2012, «Кино без границ»
Дата выхода DVD релиза: 12 ноября 2012, «Новый Диск»-Режиссер: Гюстав де Керверн, Бенуа Делепин-Продюсер: Гюстав де Керверн, Бенуа Делепин, Жан-Пьер Герен-Актеры: Бенуа Пульворд, Альбер Дюпонтель, Бриджитт Фонтейн, Ареска Белькасем, Боли Ланнерс Серж Ларивье, Стефани Пиллонка, Мисс Минг, Клои Мон, Иоланда Моро-Описание фильма:
История о двух абсолютно непохожих друг на друга братьев. Нот — самый старый панк с собакой во всей Европе, околачивающийся возле торговых центров в надежде, что покупатели угостят его йогуртом, пивом или собачьим кормом. Его брат Жан-Пьер работает продавцом в магазине постельного белья. Внезапно Жан-Пьера увольняют с работы и лишают крыши над головой, после чего братья возобновляют общение. Борясь против потребительского общества, они пытаются устроить революцию в торговом центре.-
Продолжительность: 01:35:24
Качество видео: BDRip 720p
Видеокодек: MPEG-4 AVC/H.264
Битрейт видео: ~ 5038 Кбит/сек
Размер кадра: 1280 x 544 (2.353) at 24.000 fps : 0.301 Bits/Pixel
Аудиокодек: AC3 5.1 | DTS
Аудио #1: AC3 448 Кбит/сек (6ch), 48,0 КГц, 16 бит [Русский, MVO]
Аудио #2: DTS 1510 Кбит/сек (6ch), 48,0 КГц, 24 бит [Французский]

Награды

MediaInfo:

Полное имя                               : G:\000 DVD+BD\Большая вечеринка  Le grand soir (2012) BDRip 720p\Bolshaja.vecerinka.2012.P.BDRip.720p.NNM-CLUB.mkv
Формат                                   : Matroska
Версия формата                           : Version 2
Размер файла                             : 4,66 Гбайт
Продолжительность                        : 1 ч. 35 м.
Общий поток                              : 6996 Кбит/сек
Дата кодирования                         : UTC 2012-11-10 18:34:53
Программа кодирования                    : mkvmerge v4.9.1 ('Ich will') built on Jul 11 2011 23:53:15
Библиотека кодирования                   : libebml v1.2.1 + libmatroska v1.1.1
Видео
Идентификатор                            : 1
Формат                                   : AVC
Формат/Информация                        : Advanced Video Codec
Профиль формата                          : [url=mailto:High@L4.1]High@L4.1[/url]
Параметр CABAC формата                   : Да
Параметр ReFrames формата                : 5 кадров
Идентификатор кодека                     : V_MPEG4/ISO/AVC
Продолжительность                        : 1 ч. 35 м.
Битрейт                                  : 5038 Кбит/сек
Ширина                                   : 1280 пикселей
Высота                                   : 544 пикселя
Соотношение сторон                       : 2,35:1
Режим частоты кадров                     : Постоянный
Частота кадров                           : 24,000 кадра/сек
Цветовое пространство                    : YUV
Субдискретизация насыщенности            : 4:2:0
Битовая глубина                          : 8 бит
Тип развёртки                            : Прогрессивная
Бит/(Пиксели*Кадры)                      : 0.301
Размер потока                            : 3,27 Гбайт (70%)
Библиотека кодирования                   : x264 core 125 r2208 d9d2288
Настройки программы                      : cabac=1 / ref=5 / deblock=1:0:0 / analyse=0x3:0x113 / me=umh / subme=8 / psy=1 / psy_rd=1.00:0.00 / mixed_ref=1 / me_range=16 / chroma_me=1 / trellis=1 / 8x8dct=1 / cqm=0 / deadzone=21,11 / fast_pskip=1 / chroma_qp_offset=-2 / threads=12 / lookahead_threads=2 / sliced_threads=0 / nr=0 / decimate=1 / interlaced=0 / bluray_compat=0 / constrained_intra=0 / bframes=3 / b_pyramid=2 / b_adapt=2 / b_bias=0 / direct=3 / weightb=1 / open_gop=0 / weightp=2 / keyint=240 / keyint_min=24 / scenecut=40 / intra_refresh=0 / rc_lookahead=50 / rc=2pass / mbtree=1 / bitrate=5038 / ratetol=1.0 / qcomp=0.60 / qpmin=0 / qpmax=69 / qpstep=4 / cplxblur=20.0 / qblur=0.5 / ip_ratio=1.40 / aq=1:1.00
Язык                                     : French
Default                                  : Да
Forced                                   : Да
Аудио #1
Идентификатор                            : 2
Формат                                   : AC-3
Формат/Информация                        : Audio Coding 3
Расширение режима                        : CM (complete main)
Параметр Endianness формата              : Big
Идентификатор кодека                     : A_AC3
Продолжительность                        : 1 ч. 35 м.
Вид битрейта                             : Постоянный
Битрейт                                  : 448 Кбит/сек
Каналы                                   : 6 каналов
Расположение каналов                     : Front: L C R, Side: L R, LFE
Частота                                  : 48,0 КГц
Битовая глубина                          : 16 бит
Метод сжатия                             : С потерями
Размер потока                            : 306 Мбайт (6%)
Заголовок                                : DD 5.1 @ 448 kbps - MVO, R5
Язык                                     : Russian
Default                                  : Да
Forced                                   : Да
Аудио #2
Идентификатор                            : 3
Формат                                   : DTS
Формат/Информация                        : Digital Theater Systems
Идентификатор кодека                     : A_DTS
Продолжительность                        : 1 ч. 35 м.
Вид битрейта                             : Постоянный
Битрейт                                  : 1510 Кбит/сек
Каналы                                   : 6 каналов
Расположение каналов                     : Front: L C R, Side: L R, LFE
Частота                                  : 48,0 КГц
Битовая глубина                          : 24 бит
Метод сжатия                             : С потерями
Задержка видео                           : 11 мс.
Размер потока                            : 1,01 Гбайт (22%)
Заголовок                                : DTS 5.1 @ 1536 kbps
Язык                                     : French
Default                                  : Нет
Forced                                   : Нет
Скриншоты:




Время раздачи: 24/7 (до 10 скачавших)

[Цитировать]



Показать сообщения:    

Текущее время: 09-Дек 02:59

Часовой пояс: UTC + 3


Вы не можете начинать темы
Вы не можете отвечать на сообщения
Вы не можете редактировать свои сообщения
Вы не можете удалять свои сообщения
Вы не можете голосовать в опросах
Вы не можете прикреплять файлы к сообщениям
Вы не можете скачивать файлы

!ВНИМАНИЕ!
Сайт не предоставляет электронные версии произведений, а занимается лишь коллекционированием и каталогизацией ссылок, присылаемых и публикуемых на форуме нашими читателями. Если вы являетесь правообладателем какого-либо представленного материала и не желаете, чтобы ссылка на него находилась в нашем каталоге, свяжитесь с нами, и мы незамедлительно удалим ее. Файлы для обмена на трекере предоставлены пользователями сайта, и администрация не несет ответственности за их содержание. Просьба не заливать файлы, защищенные авторскими правами, а также файлы нелегального содержания!