[ Сегодня идет свободное скачивание без начисления Download ]


Статистика раздачи
Нет
 
   
 
Top  
 
 
-Снежная тюрьма / Into the White (2012) BDRip- Русское название: Снежная тюрьма
Оригинальное название: Into the White
Год выпуска: 2012
Производство: Норвегия, Швеция / Zentropa International Norway, Eurimages, Film Fund FUZZ
Жанр: Боевик, Драма, Военный
Перевод: Одноголосый закадровый, любительский
Озвучка / Автор перевода: zamez
Субтитры: Вшитые отключаемые
Язык субтитров: Русский, Норвежский, Финский
Дата мировой премьеры: 4 марта 2012
Дата российской премьеры: 26 апреля 2013, «Русский репортаж»
Режиссер: Петтер Несс
Актеры: Флориан Лукас, Дэвид Кросс, Стиг Хенрик Хофф, Локлен Нибор, Руперт Гринт, Ким Хёуген, Кнут Йонер, Мортен Фальдаас, Сондре Крогтофт Ларсен
Описание фильма:
Одним холодным зимним днем над территорией Норвегии разгорается жаркое сражение двух самолетов — немецкого и английского. В результате столкновения обе машины получают серьезные повреждения и падают в глухом норвежском лесу. Здесь, в изоляции от внешнего мира, враги вынуждены выживать вместе. Тяжелые условия и необходимость поддерживать друг друга постепенно превращают врагов в товарищей

Продолжительность: 01:39:58
Качество видео: BDRip
Видеокодек: MPEG-4 AVC/H.264
Битрейт видео: ~7494 Кбит/сек
Размер кадра: 1920x816
Аудио #1: Русский (Dolby AC3, 6 ch) 384 Кбит/сек
Аудио #2: Английский (DTS, 6 ch) 1510 Кбит/сек

MediaInfo:

Общее
Уникальный идентификатор         : 181753774549255173317836533796362756983 (0x88BC80F1E465C926BC0556845EC3A377)
Полное имя                       : H:\into.the.white.2012.L1.1080p.BDRip.mkv
Формат                           : Matroska
Версия формата                   : Version 2
Размер файла                     : 6,69 Гбайт
Продолжительность                : 1 ч. 39 м.
Общий поток                      : 9578 Кбит/сек
Название фильма                  : ПаZиtиFFк@
Дата кодирования                 : UTC 2012-11-11 14:50:48
Программа кодирования            : mkvmerge v5.8.0 ('No Sleep / Pillow') built on Sep  2 2012 15:37:04
Библиотека кодирования           : libebml v1.2.3 + libmatroska v1.3.0
Видео
Идентификатор                    : 1
Формат                           : AVC
Формат/Информация                : Advanced Video Codec
Профиль формата                  : [url=mailto:High@L4.1]High@L4.1[/url]
Параметр CABAC формата           : Да
Параметр ReFrames формата        : 4 кадра
Идентификатор кодека             : V_MPEG4/ISO/AVC
Продолжительность                : 1 ч. 39 м.
Битрейт                          : 7494 Кбит/сек
Номинальный битрейт              : 7954 Кбит/сек
Ширина                           : 1920 пикселей
Высота                           : 816 пикселей
Соотношение сторон               : 2,35:1
Частота кадров                   : 25,000 кадров/сек
Цветовое пространство            : YUV
Субдискретизация насыщенности    : 4:2:0
Битовая глубина                  : 8 бит
Тип развёртки                    : Прогрессивная
Бит/(Пиксели*Кадры)              : 0.191
Размер потока                    : 5,23 Гбайт (78%)
Заголовок                        : NNM-CLUB.RU
Библиотека кодирования           : x264 core 125 r2200 999b753
Настройки программы              : cabac=1 / ref=5 / deblock=1:-3:-3 / analyse=0x3:0x133 / me=umh / subme=9 / psy=1 / psy_rd=1.00:0.25 / mixed_ref=1 / me_range=32 / chroma_me=1 / trellis=2 / 8x8dct=1 / cqm=0 / deadzone=21,11 / fast_pskip=1 / chroma_qp_offset=-4 / threads=12 / lookahead_threads=2 / sliced_threads=0 / nr=0 / decimate=1 / interlaced=0 / bluray_compat=0 / constrained_intra=0 / bframes=5 / b_pyramid=1 / b_adapt=2 / b_bias=0 / direct=3 / weightb=1 / open_gop=0 / weightp=2 / keyint=250 / keyint_min=25 / scenecut=40 / intra_refresh=0 / rc_lookahead=60 / rc=abr / mbtree=1 / bitrate=7954 / ratetol=1.0 / qcomp=0.60 / qpmin=0 / qpmax=69 / qpstep=4 / ip_ratio=1.40 / aq=1:1.00
Язык                             : English
Default                          : Да
Forced                           : Нет
Аудио #1
Идентификатор                    : 2
Формат                           : AC-3
Формат/Информация                : Audio Coding 3
Расширение режима                : CM (complete main)
Идентификатор кодека             : A_AC3
Продолжительность                : 1 ч. 39 м.
Вид битрейта                     : Постоянный
Битрейт                          : 384 Кбит/сек
Каналы                           : 6 каналов
Расположение каналов             : Front: L C R, Side: L R, LFE
Частота                          : 48,0 КГц
Битовая глубина                  : 16 бит
Метод сжатия                     : С потерями
Размер потока                    : 275 Мбайт (4%)
Заголовок                        : L1
Язык                             : Russian
Default                          : Да
Forced                           : Нет
Аудио #2
Идентификатор                    : 3
Формат                           : DTS
Формат/Информация                : Digital Theater Systems
Идентификатор кодека             : A_DTS
Продолжительность                : 1 ч. 39 м.
Вид битрейта                     : Постоянный
Битрейт                          : 1510 Кбит/сек
Каналы                           : 6 каналов
Расположение каналов             : Front: L C R, Side: L R, LFE
Частота                          : 48,0 КГц
Битовая глубина                  : 24 бит
Метод сжатия                     : С потерями
Размер потока                    : 1,05 Гбайт (16%)
Язык                             : English
Default                          : Нет
Forced                           : Нет
Текст #1
Идентификатор                    : 4
Формат                           : UTF-8
Идентификатор кодека             : S_TEXT/UTF8
Идентификатор кодека/Информация  : UTF-8 Plain Text
Язык                             : Russian
Default                          : Нет
Forced                           : Нет
Текст #2
Идентификатор                    : 5
Формат                           : VobSub
Режим смешивания                 : zlib
Идентификатор кодека             : S_VOBSUB
Идентификатор кодека/Информация  : The same subtitle format used on DVDs
Язык                             : Norwegian
Default                          : Нет
Forced                           : Нет
Текст #3
Идентификатор                    : 6
Формат                           : VobSub
Режим смешивания                 : zlib
Идентификатор кодека             : S_VOBSUB
Идентификатор кодека/Информация  : The same subtitle format used on DVDs
Язык                             : Finnish
Default                          : Нет
Forced                           : Нет
Меню
00:00:00.000                     : en:00:00:00.000
00:13:43.040                     : en:00:13:43.040
00:27:16.800                     : en:00:27:16.800
00:40:24.600                     : en:00:40:24.600
00:53:56.720                     : en:00:53:56.720
01:07:27.320                     : en:01:07:27.320
01:21:03.840                     : en:01:21:03.840
01:36:46.040                     : en:01:36:46.040
Скриншоты:


Время раздачи: 16.30-23.00 до 5 скачавших

[Цитировать]



Показать сообщения:    

Текущее время: 23-Фев 01:03

Часовой пояс: UTC + 3


Вы не можете начинать темы
Вы не можете отвечать на сообщения
Вы не можете редактировать свои сообщения
Вы не можете удалять свои сообщения
Вы не можете голосовать в опросах
Вы не можете прикреплять файлы к сообщениям
Вы не можете скачивать файлы

!ВНИМАНИЕ!
Сайт не предоставляет электронные версии произведений, а занимается лишь коллекционированием и каталогизацией ссылок, присылаемых и публикуемых на форуме нашими читателями. Если вы являетесь правообладателем какого-либо представленного материала и не желаете, чтобы ссылка на него находилась в нашем каталоге, свяжитесь с нами, и мы незамедлительно удалим ее. Файлы для обмена на трекере предоставлены пользователями сайта, и администрация не несет ответственности за их содержание. Просьба не заливать файлы, защищенные авторскими правами, а также файлы нелегального содержания!