[ Сегодня идет свободное скачивание без начисления Download ]


Статистика раздачи
Нет
 
   
 
Top  
 
 
-На цепи / Chained (2012) HDRip- Русское название: На цепи
Оригинальное название: Chained
Год выпуска: 2012
Производство: Канада | Envision Media Arts, Myriad Pictures, RGB Productions
Жанр: Ужасы, Tриллер
Перевод: Профессиональный многоголосый [Baibako]
Субтитры: отсутствуют-Дата мировой премьеры: 5 августа 2012-Режиссер: Дженнифер Чэмберс Линч-Сценарий: Дженнифер Чэмберс Линч, Дамиан О'Доннелл-Продюсер: Крэйг Андерсон, Ронда Бэйкер, Дэвид Бьюлоу-Актеры: Винсент Д'Онофрио, Джулия Ормонд, Имон Фэррен, Джина Филипс, Джейк Уэбер, Конор Лесли, Ивэн Бёрд, Эми Матисио, Шеннон Джардин, Джоди Садвоски-Описание фильма:
Восьмилетний паренек Тим и его мать подсаживаются в такси к Бобу — невменяемому водителю, как раз подыскивающего себе новую жертву. После убийства женщины Тим становится марионеткой в руках психа, вынуждающего его хоронить тела. Хватит ли подростку мужества разорвать ужасную связь судьбы, все крепче стягивающую его с убийцей…-
Продолжительность: 01:34:10
Качество видео: HDRip
Видеокодек: Xvid
Битрейт видео: ~ 1824 Кбит/сек
Размер кадра: 720 x 304 (2.368) at 23.976 fps
Аудиокодек: AC3 5.1
Битрейт aудио: AC3 384 Кбит/сек (6ch), 48,0 КГц, 16 бит
Релиз:

Знаете ли вы, что...

• Первоначально фильм получил рейтинг NC-17 от MPAA за «несколько сцен откровенного насилия», но позже фильм был отредактирован для получения рейтинга R за «особо волнующие и садистские сцены насилия, включая кровавые убийства и изнасилования, а так же за грубые выражения и повышенную сексуальность».
• Дженнифер Чэмберс Линч и Винсент Д’Онофрио заявили, что они предпочли бы, чтобы название этого фильма было «Rabbit» (Кролик).
• В сцене, где Боб бросает камни в Рэбита, Винсент Д’Онофрио на самом деле кидал губки в форме камней в Ивэна Бёрда.
• Камео режиссера — Дженнифер Чэмберс Линч сыграла в фильме ведущую кулинарного шоу на ТВ.

MediaInfo:

Полное имя                               : G:\Фильмы 2011-12\На цепи  Chained (2012) HDRip\Chained.P.2012.HDRip.avi
Формат                                   : AVI
Формат/Информация                        : Audio Video Interleave
Размер файла                             : 1,46 Гбайт
Продолжительность                        : 1 ч. 34 м.
Общий поток                              : 2218 Кбит/сек
Программа кодирования                    : VirtualDubMod 1.5.10.3 | [url=http://www.virtualdub-fr.org]www.virtualdub-fr.org[/url] || (build 2550/release)
Библиотека кодирования                   : VirtualDubMod build 2550/release
Видео
Идентификатор                            : 0
Формат                                   : MPEG-4 Visual
Профиль формата                          : Advanced Simple@L5
Параметр BVOP формата                    : 1
Параметр QPel формата                    : Нет
Параметр GMC формата                     : Без точки перехода
Параметр матрицы формата                 : Default (H.263)
Режим смешивания                         : Сжатый битовый поток
Идентификатор кодека                     : XVID
Идентификатор кодека/Подсказка           : XviD
Продолжительность                        : 1 ч. 34 м.
Битрейт                                  : 1824 Кбит/сек
Ширина                                   : 720 пикселей
Высота                                   : 304 пикселя
Соотношение сторон                       : 2,35:1
Частота кадров                           : 23,976 кадра/сек
Цветовое пространство                    : YUV
Субдискретизация насыщенности            : 4:2:0
Битовая глубина                          : 8 бит
Тип развёртки                            : Прогрессивная
Метод сжатия                             : С потерями
Бит/(Пиксели*Кадры)                      : 0.348
Размер потока                            : 1,20 Гбайт (82%)
Библиотека кодирования                   : XviD 1.2.1 (UTC 2008-12-04)
Аудио
Идентификатор                            : 1
Формат                                   : AC-3
Формат/Информация                        : Audio Coding 3
Расширение режима                        : CM (complete main)
Параметр Endianness формата              : Big
Идентификатор кодека                     : 2000
Продолжительность                        : 1 ч. 34 м.
Вид битрейта                             : Постоянный
Битрейт                                  : 384 Кбит/сек
Каналы                                   : 6 каналов
Расположение каналов                     : Front: L C R, Side: L R, LFE
Частота                                  : 48,0 КГц
Битовая глубина                          : 16 бит
Метод сжатия                             : С потерями
Размер потока                            : 259 Мбайт (17%)
Выравнивание                             : Разделение по промежуткам
Продолжительность промежутка             : 42  мс. (1,00 видеокадр)
Время предзагрузки промежутка            : 500  мс.
Скриншоты:



[Цитировать]



Показать сообщения:    

Текущее время: 07-Дек 23:12

Часовой пояс: UTC + 3


Вы не можете начинать темы
Вы не можете отвечать на сообщения
Вы не можете редактировать свои сообщения
Вы не можете удалять свои сообщения
Вы не можете голосовать в опросах
Вы не можете прикреплять файлы к сообщениям
Вы не можете скачивать файлы

!ВНИМАНИЕ!
Сайт не предоставляет электронные версии произведений, а занимается лишь коллекционированием и каталогизацией ссылок, присылаемых и публикуемых на форуме нашими читателями. Если вы являетесь правообладателем какого-либо представленного материала и не желаете, чтобы ссылка на него находилась в нашем каталоге, свяжитесь с нами, и мы незамедлительно удалим ее. Файлы для обмена на трекере предоставлены пользователями сайта, и администрация не несет ответственности за их содержание. Просьба не заливать файлы, защищенные авторскими правами, а также файлы нелегального содержания!