[ Сегодня идет свободное скачивание без начисления Download ]


Статистика раздачи
Нет
 
   
 
Top  
 
 
-Убойное Рождество Гарольда и Кумара / A Very Harold & Kumar Christmas (2011) BDRip
«Рождество приходит преждевременно»
- Русское название: Убойное Рождество Гарольда и Кумара
Оригинальное название: A Very Harold & Kumar Christmas
Год выпуска: 2011
Производство: США | Warner Bros. Pictures Distributions
Жанр: Комедия
Перевод: Многоголосый закадровый, профессиональный (Лицензия), Двугоголосый закадровый, профессиональный (Кубик в Кубе), Одноголосый закадровый, профессиональный (А. Дольский)
Язык субтитров: Русский (Full), English (SDH)
Вид субтитров: Вшитые отключаемые-Дата мировой премьеры: 4 ноября 2011
Дата выхода DVD релиза: 8 ноября 2012, «CP Дистрибуция»-Режиссер: Тодд Штраус-Шульсон-Продюсеры: Грег Шапиро, Ричард Бренер, Николь Браун-Актеры: Джон Чо, Кэл Пенн, Нил Патрик Харрис, Пэттон Освальт, Изабелла Жельняк, Остин Бикел, Паула Гарсес, Дэнни Трехо, Инга Р. Уилсон, Бобби Ли, Томас Леннон, Амир Блюменфилд, Элиас Котеас, Ясен Пеянков, Эдди Кэй Томас ...-Описание фильма:
Прошло шесть лет после приключения в проливе Гуантанамо. На этот раз закадычные друзья Гарольд Ли и Кумар Пател сорвали праздник, случайно спалив дотла призовую рождественскую ель тестя Гарольда.-
Продолжительность: 01:29:39
Качество видео: BDRip 1080p
Видеокодек: MPEG-4 AVC/H.264
Битрейт видео: ~14,8 Мбит/сек
Размер кадра: 1920 x 800 (2.400) at 23.976 fps : 0.243 Bits/Pixel
Аудиокодек: AC3 2.0/5.1 | DTS
Аудио #1: AC3 384 Кбит/сек (6ch), 48,0 КГц, 16 бит [Русский, MVO-R5]
Аудио #2: DTS 1510 Кбит/сек (6ch), 48,0 КГц, 24 бит [Русский, DVO-Кубик в Кубе]
Аудио #3: AC3 192 Кбит/сек (2ch), 48,0 КГц, 16 бит [Русский, VO-авторский, А. Дольский]
Аудио #4: DTS 1510 Кбит/сек (6ch), 48,0 КГц, 24 бит [Английский]

MediaInfo:

Полное имя                               : F:\Убойное Рождество Гарольда и Кумара  A Very Harold & Kumar 3D Christma (2011) BDRip 1080p\Ubojnoe.Rozhdestvo.Garolda.i.Kumara.2011.D.BDRip.1080p.NNM-CLUB.mkv
Формат                                   : Matroska
Версия формата                           : Version 2
Размер файла                             : 11,8 Гбайт
Продолжительность                        : 1 ч. 29 м.
Общий поток                              : 18,8 Мбит/сек
Название фильма                          : Very.Harold.Kumar.Christmas.2011.BDRip.1080p.NNM-CLUB
Дата кодирования                         : UTC 2012-11-08 04:01:13
Программа кодирования                    : mkvmerge v2.9.9 ('Tutu') built on Nov 25 2009 21:13:32
Библиотека кодирования                   : libebml v0.7.9 + libmatroska v0.8.1
Видео
Идентификатор                            : 1
Формат                                   : AVC
Формат/Информация                        : Advanced Video Codec
Профиль формата                          : [url=mailto:High@L4.1]High@L4.1[/url]
Параметр CABAC формата                   : Да
Параметр ReFrames формата                : 5 кадров
Идентификатор кодека                     : V_MPEG4/ISO/AVC
Продолжительность                        : 1 ч. 29 м.
Битрейт                                  : 14,8 Мбит/сек
Ширина                                   : 1920 пикселей
Высота                                   : 800 пикселей
Соотношение сторон                       : 2,40:1
Режим частоты кадров                     : Постоянный
Частота кадров                           : 23,976 кадра/сек
Цветовое пространство                    : YUV
Субдискретизация насыщенности            : 4:2:0
Битовая глубина                          : 8 бит
Тип развёртки                            : Прогрессивная
Бит/(Пиксели*Кадры)                      : 0.403
Размер потока                            : 9,30 Гбайт (79%)
Заголовок                                : -=NNM-CLUB.RU=-
Библиотека кодирования                   : x264 core 116 r2074 2641b9e
Настройки программы                      : cabac=1 / ref=5 / deblock=1:-3:-3 / analyse=0x3:0x113 / me=umh / subme=11 / psy=1 / psy_rd=1.05:0.05 / mixed_ref=1 / me_range=48 / chroma_me=1 / trellis=2 / 8x8dct=1 / cqm=0 / deadzone=21,11 / fast_pskip=0 / chroma_qp_offset=-2 / threads=12 / sliced_threads=0 / nr=0 / decimate=1 / interlaced=0 / bluray_compat=0 / constrained_intra=0 / bframes=9 / b_pyramid=2 / b_adapt=2 / b_bias=0 / direct=3 / weightb=1 / open_gop=0 / weightp=2 / keyint=250 / keyint_min=23 / scenecut=40 / intra_refresh=0 / rc_lookahead=40 / rc=crf / mbtree=1 / crf=17.5 / qcomp=0.60 / qpmin=10 / qpmax=51 / qpstep=4 / vbv_maxrate=50000 / vbv_bufsize=62500 / crf_max=0.0 / nal_hrd=none / ip_ratio=1.40 / aq=1:1.00
Язык                                     : English
Default                                  : Нет
Forced                                   : Да
Аудио #1
Идентификатор                            : 2
Формат                                   : AC-3
Формат/Информация                        : Audio Coding 3
Расширение режима                        : CM (complete main)
Параметр Endianness формата              : Big
Идентификатор кодека                     : A_AC3
Продолжительность                        : 1 ч. 29 м.
Вид битрейта                             : Постоянный
Битрейт                                  : 384 Кбит/сек
Каналы                                   : 6 каналов
Расположение каналов                     : Front: L C R, Side: L R, LFE
Частота                                  : 48,0 КГц
Битовая глубина                          : 16 бит
Метод сжатия                             : С потерями
Размер потока                            : 246 Мбайт (2%)
Заголовок                                : AC3.384.Kbps.Russian
Язык                                     : Russian
Default                                  : Да
Forced                                   : Нет
Аудио #2
Идентификатор                            : 3
Формат                                   : DTS
Формат/Информация                        : Digital Theater Systems
Идентификатор кодека                     : A_DTS
Продолжительность                        : 1 ч. 29 м.
Вид битрейта                             : Постоянный
Битрейт                                  : 1510 Кбит/сек
Каналы                                   : 6 каналов
Расположение каналов                     : Front: L C R, Side: L R, LFE
Частота                                  : 48,0 КГц
Битовая глубина                          : 24 бит
Метод сжатия                             : С потерями
Задержка видео                           : 11 мс.
Размер потока                            : 968 Мбайт (8%)
Заголовок                                : DTS 5.1 @ 1510 kb/s (Russian MVO, Kubik v Kube)
Язык                                     : Russian
Default                                  : Нет
Forced                                   : Да
Аудио #3
Идентификатор                            : 4
Формат                                   : AC-3
Формат/Информация                        : Audio Coding 3
Расширение режима                        : CM (complete main)
Параметр Endianness формата              : Big
Идентификатор кодека                     : A_AC3
Продолжительность                        : 1 ч. 29 м.
Вид битрейта                             : Постоянный
Битрейт                                  : 192 Кбит/сек
Каналы                                   : 2 канала
Расположение каналов                     : Front: L R
Частота                                  : 48,0 КГц
Битовая глубина                          : 16 бит
Метод сжатия                             : С потерями
Размер потока                            : 123 Мбайт (1%)
Заголовок                                : AC3.192.Kbps (Russian-Андрей Дольский)
Язык                                     : Russian
Default                                  : Нет
Forced                                   : Нет
Аудио #4
Идентификатор                            : 5
Формат                                   : DTS
Формат/Информация                        : Digital Theater Systems
Идентификатор кодека                     : A_DTS
Продолжительность                        : 1 ч. 29 м.
Вид битрейта                             : Постоянный
Битрейт                                  : 1510 Кбит/сек
Каналы                                   : 6 каналов
Расположение каналов                     : Front: L C R, Side: L R, LFE
Частота                                  : 48,0 КГц
Битовая глубина                          : 24 бит
Метод сжатия                             : С потерями
Задержка видео                           : 11 мс.
Размер потока                            : 968 Мбайт (8%)
Заголовок                                : DTS 5.1 @ 1510 kb/s (English)
Язык                                     : English
Default                                  : Нет
Forced                                   : Нет
Текст #1
Идентификатор                            : 6
Формат                                   : UTF-8
Идентификатор кодека                     : S_TEXT/UTF8
Идентификатор кодека/Информация          : UTF-8 Plain Text
Заголовок                                : Russian (Full)
Язык                                     : Russian
Default                                  : Да
Forced                                   : Нет
Текст #2
Идентификатор                            : 7
Формат                                   : UTF-8
Идентификатор кодека                     : S_TEXT/UTF8
Идентификатор кодека/Информация          : UTF-8 Plain Text
Заголовок                                : English (Full)
Язык                                     : English
Default                                  : Нет
Forced                                   : Нет
Меню
00:00:00.000                             : :Chapter 01
00:09:31.779                             : :Chapter 02
00:21:44.594                             : :Chapter 03
00:30:48.555                             : :Chapter 04
00:39:23.027                             : :Chapter 05
00:49:27.798                             : :Chapter 06
01:00:44.349                             : :Chapter 07
01:09:09.186                             : :Chapter 08
01:21:18.164                             : :Chapter 09
Скриншоты:


Время раздачи: 24/7 (до 10 скачавших)

[Цитировать]



Показать сообщения:    

Текущее время: 07-Дек 21:27

Часовой пояс: UTC + 3


Вы не можете начинать темы
Вы не можете отвечать на сообщения
Вы не можете редактировать свои сообщения
Вы не можете удалять свои сообщения
Вы не можете голосовать в опросах
Вы не можете прикреплять файлы к сообщениям
Вы не можете скачивать файлы

!ВНИМАНИЕ!
Сайт не предоставляет электронные версии произведений, а занимается лишь коллекционированием и каталогизацией ссылок, присылаемых и публикуемых на форуме нашими читателями. Если вы являетесь правообладателем какого-либо представленного материала и не желаете, чтобы ссылка на него находилась в нашем каталоге, свяжитесь с нами, и мы незамедлительно удалим ее. Файлы для обмена на трекере предоставлены пользователями сайта, и администрация не несет ответственности за их содержание. Просьба не заливать файлы, защищенные авторскими правами, а также файлы нелегального содержания!