[ Сегодня идет свободное скачивание без начисления Download ]


Статистика раздачи
Нет
 
   
 
Top  
 
 
-Папа-досвидос / That's My Boy (Theatrical cut) (2012) [720p] BDRip- Русское название: Папа-досвидос
Оригинальное название: That's My Boy (2012) BDRip
Год выпуска: 2012
Производство: США
Жанр: Комедия
Перевод: Дублированный
Субтитры: Вшитые отключаемые
Язык субтитров: Русские, Английские
Дата мировой премьеры: 4 июня 2012
Дата российской премьеры: 19 июля 2012
Дата выхода DVD релиза: 16 октября 2012
Режиссер: Шон Андерс
Актеры: Адам Сэндлер, Энди Сэмберг, Лейтон Мистер, Майло Вентимилья, Ванилла Айс, Пегги Стюарт, Блейк Кларк, Меган Фэй, Тони Орландо, Джеймс Каан, Сьюзен Сарандон, Уилл Форте, Рэйчел Дрэч, Ник Свардсон, Луэнелль, Сиара, Ана Гастейер, Ева Амурри, Джастин Уивер, Дэн Патрик, Рекс Райан, Дэна Мин Гудман, Джулия Ли Волов, Ребекка Маршалл, Эбигейл Клейн, Джеки Сэндлер, Эрин Эндрюс, Сэм Кауфман, Дэнни Мендельсон, Колин Куинн, Пэтти Росс, Крис Титон, Айан Зиринг, Майк Сэндлер, Сэди Сэндлер, Санни Сэндлер, Абдулаи Нгом, Барон Дэвис, Эмбер Пол, Брэд Грюнберг, Деннис Дуган, Нэнси Йи, Кодзи Катаока, Джейсон Венеция, Скотт Т. Бердсли, Сью Ли, Роберт Харви, Пол Пабст
Описание фильма:
Переспав с «очень плохой училкой» прямо в школе, тинейджер становится отцом «по залету», а его зрелая пассия попадает в тюрьму за совращение малолетнего. Теперь юный папа-одиночка вынужден заботиться о сыне до его совершеннолетия, а затем благополучно исчезает в неизвестном направлении. И вот, много лет спустя, оказавшись на мели, эксцентричный папаша-инфантил словно ураган врывается в жизнь сына накануне его свадьбы и своими безумными выходками переворачивает всё вверх дном.

Продолжительность: 01:54:28
Качество видео: BDRip
Видеокодек: MPEG-4 AVC/H.264
Битрейт видео: ~5100
Размер кадра: 1280x534
Аудиокодек: AC3 5.1
Аудио #1: 48 kHz, Dolby AC3 5.1 640 kbps, [Русский, дубляж]
Аудио #2: 48 kHz, Dolby AC3 5.1 1510 kbps, [Английский]
Сэмпл: Скачать

MediaInfo

Формат : Matroska
Версия формата : Version 2
Размер файла : 5,80 Гбайт
Продолжительность : 1 ч. 54 м.
Общий поток : 7252 Кбит/сек
Название фильма : That's My Boy (2012)
Дата кодирования : UTC 2012-10-31 19:48:43
Программа кодирования : mkvmerge v5.8.0 ('No Sleep / Pillow') built on Sep 2 2012 15:37:04
Библиотека кодирования : libebml v1.2.3 + libmatroska v1.3.0
Видео
Идентификатор : 1
Формат : AVC
Формат/Информация : Advanced Video Codec
Профиль формата : High@L4.1
Параметр CABAC формата : Да
Параметр ReFrames формата : 9 кадров
Идентификатор кодека : V_MPEG4/ISO/AVC
Продолжительность : 1 ч. 54 м.
Битрейт : 5100 Кбит/сек
Ширина : 1280 пикселей
Высота : 534 пикселя
Соотношение сторон : 2,40:1
Режим частоты кадров : Постоянный
Частота кадров : 23,976 кадра/сек
Цветовое пространство : YUV
Субдискретизация насыщенности : 4:2:0
Битовая глубина : 8 бит
Тип развёртки : Прогрессивная
Бит/(Пиксели*Кадры) : 0.311
Размер потока : 3,96 Гбайт (68%)
Заголовок : Papa-dosvidos.Theatrical.2012.BDRip.720p.Rus.Eng
Библиотека кодирования : x264 core 128 r2216 198a7ea
Настройки программы : cabac=1 / ref=9 / deblock=1:-3:-3 / analyse=0x3:0x133 / me=umh / subme=11 / psy=1 / psy_rd=1.25:0.10 / mixed_ref=1 / me_range=32 / chroma_me=1 / trellis=2 / 8x8dct=1 / cqm=0 / deadzone=21,11 / fast_pskip=0 / chroma_qp_offset=-2 / threads=12 / lookahead_threads=2 / sliced_threads=0 / nr=0 / decimate=1 / interlaced=0 / bluray_compat=0 / constrained_intra=0 / bframes=10 / b_pyramid=2 / b_adapt=2 / b_bias=0 / direct=3 / weightb=1 / open_gop=0 / weightp=2 / keyint=250 / keyint_min=23 / scenecut=40 / intra_refresh=0 / rc_lookahead=60 / rc=2pass / mbtree=1 / bitrate=5100 / ratetol=1.0 / qcomp=0.60 / qpmin=0 / qpmax=69 / qpstep=4 / cplxblur=20.0 / qblur=0.5 / vbv_maxrate=50000 / vbv_bufsize=50000 / nal_hrd=none / ip_ratio=1.40 / aq=1:1.20
Язык : English
Default : Да
Forced : Нет
Аудио #1
Идентификатор : 2
Формат : AC-3
Формат/Информация : Audio Coding 3
Расширение режима : CM (complete main)
Параметр Endianness формата : Big
Идентификатор кодека : A_AC3
Продолжительность : 1 ч. 54 м.
Вид битрейта : Постоянный
Битрейт : 640 Кбит/сек
Каналы : 6 каналов
Расположение каналов : Front: L C R, Side: L R, LFE
Частота : 48,0 КГц
Битовая глубина : 16 бит
Метод сжатия : С потерями
Размер потока : 524 Мбайт (9%)
Заголовок : 640 kbps - Dub Russian, BD EUR
Язык : Russian
Default : Да
Forced : Да
Аудио #2
Идентификатор : 3
Формат : DTS
Формат/Информация : Digital Theater Systems
Идентификатор кодека : A_DTS
Продолжительность : 1 ч. 54 м.
Вид битрейта : Постоянный
Битрейт : 1510 Кбит/сек
Каналы : 6 каналов
Расположение каналов : Front: L C R, Side: L R, LFE
Частота : 48,0 КГц
Битовая глубина : 24 бит
Метод сжатия : С потерями
Размер потока : 1,21 Гбайт (21%)
Заголовок : 1510 kbps - Original
Язык : English
Default : Нет
Forced : Нет
Текст #1
Идентификатор : 4
Формат : UTF-8
Идентификатор кодека : S_TEXT/UTF8
Идентификатор кодека/Информация : UTF-8 Plain Text
Заголовок : Russian
Язык : Russian
Default : Нет
Forced : Нет
Текст #2
Идентификатор : 5
Формат : UTF-8
Идентификатор кодека : S_TEXT/UTF8
Идентификатор кодека/Информация : UTF-8 Plain Text
Заголовок : English
Язык : English
Default : Нет
Forced : Нет
Меню
00:00:00.000 : en:
00:08:33.763 : en:
00:12:59.403 : en:
00:19:42.890 : en:
00:28:30.625 : en:
00:36:19.594 : en:
00:41:24.648 : en:
00:47:24.049 : en:
00:54:21.758 : en:
01:00:19.073 : en:
01:06:46.585 : en:
01:15:04.333 : en:
01:23:11.987 : en:
01:27:55.019 : en:
01:34:12.563 : en:
01:45:36.747 : en:
Скриншоты:

Время раздачи: С 14:00 до 22:00 либо по возможности. До 5 сидов

[Цитировать]



Показать сообщения:    

Текущее время: 11-Дек 11:08

Часовой пояс: UTC + 3


Вы не можете начинать темы
Вы не можете отвечать на сообщения
Вы не можете редактировать свои сообщения
Вы не можете удалять свои сообщения
Вы не можете голосовать в опросах
Вы не можете прикреплять файлы к сообщениям
Вы не можете скачивать файлы

!ВНИМАНИЕ!
Сайт не предоставляет электронные версии произведений, а занимается лишь коллекционированием и каталогизацией ссылок, присылаемых и публикуемых на форуме нашими читателями. Если вы являетесь правообладателем какого-либо представленного материала и не желаете, чтобы ссылка на него находилась в нашем каталоге, свяжитесь с нами, и мы незамедлительно удалим ее. Файлы для обмена на трекере предоставлены пользователями сайта, и администрация не несет ответственности за их содержание. Просьба не заливать файлы, защищенные авторскими правами, а также файлы нелегального содержания!