[ Сегодня идет свободное скачивание без начисления Download ]


Статистика раздачи
Нет
 
   
 
Top  
 
 
-Папа-досвидос / That's My Boy (2012) [1080p] BDRip
«Пиво и другие семейные ценности»
- Русское название: Папа-досвидос
Оригинальное название: That's My Boy (Theatrical cut)
Год выпуска: 2012
Жанр: Комедия
Перевод: Дублированный
Язык субтитров: Русский (Full,Forced), Украинский (Forced), Английский
Вид субтитров: Вшитые отключаемые-Дата мировой премьеры: 4 июня 2012
Дата российской премьеры: 19 июля 2012, «WDSSPR»
Дата выхода DVD релиза: 16 октября 2012, «Columbia/Sony»
Релиз на Blu-Ray: 30 октября 2012, «Columbia/Sony»-Режиссер: Шон Андерс-Продюсеры: Аллен Коверт, Джек Джиррапуто, Хезер Парри-Актеры: Адам Сэндлер, Энди Сэмберг, Лейтон Мистер, Майло Вентимилья, Ванилла Айс, Пегги Стюарт, Блейк Кларк, Меган Фэй, Тони Орландо, Джеймс Каан, Сьюзен Сарандон, Уилл Форте ...-Роли дублировали: Сергей Бурунов, Антон Эльдаров, Василиса Воронина, Иван Жарков, Александр Дзюба, Надежда Подъяпольская, Александр Новиков, Ольга Шорохова, Сергей Чихачев ...-Описание фильма:
Переспав с «очень плохой училкой» прямо в школе, тинейджер становится отцом «по залету», а его зрелая пассия попадает в тюрьму за совращение малолетнего. Теперь юный папа-одиночка вынужден заботиться о сыне до его совершеннолетия, а затем благополучно исчезает в неизвестном направлении. И вот, много лет спустя, оказавшись на мели, эксцентричный папаша-инфантил словно ураган врывается в жизнь сына накануне его свадьбы и своими безумными выходками переворачивает всё вверх дном.-
Продолжительность: 1:54:27
Качество видео: BDRip 1080p
Видеокодек: MPEG-4 AVC/H.264
Битрейт видео: ~10000 Кбит/сек
Размер кадра: 1920 x 800 (2.400) at 23.976 fps : 0.272 Bits/Pixel
Аудиокодек: AC3 5.1 | DTS
Аудио #1: AC3 640 Кбит/сек (6ch), 48,0 КГц, 16 бит [Русский, Дубляж]
Аудио #2: AC3 448 Кбит/сек (6ch), 48,0 КГц, 16 бит [Украинский, Дубляж]
Аудио #3: DTS 1510 Кбит/сек (6ch), 48,0 КГц, 24 бит [Английский]

MediaInfo:

Полное имя                               : F:\Фильмы\HD-BD\Папа-досвидос  That's My Boy (2012) BDRip 1080p\Papa-dosvidos.Theatrical.Cut.2012.BDRip.1080p.NNM-CLUB.mkv
Формат                                   : Matroska
Версия формата                           : Version 2
Размер файла                             : 10,1 Гбайт
Продолжительность                        : 1 ч. 54 м.
Общий поток                              : 12,6 Мбит/сек
Название фильма                          : -=NNM-CLUB.RU=-
Дата кодирования                         : UTC 2012-11-05 07:54:54
Программа кодирования                    : mkvmerge v2.9.9 ('Tutu') built on Nov 25 2009 21:13:32
Библиотека кодирования                   : libebml v0.7.9 + libmatroska v0.8.1
Видео
Идентификатор                            : 1
Формат                                   : AVC
Формат/Информация                        : Advanced Video Codec
Профиль формата                          : [url=mailto:High@L4.1]High@L4.1[/url]
Параметр CABAC формата                   : Да
Параметр ReFrames формата                : 4 кадра
Идентификатор кодека                     : V_MPEG4/ISO/AVC
Продолжительность                        : 1 ч. 54 м.
Битрейт                                  : 10000 Кбит/сек
Ширина                                   : 1920 пикселей
Высота                                   : 800 пикселей
Соотношение сторон                       : 2,40:1
Режим частоты кадров                     : Постоянный
Частота кадров                           : 23,976 кадра/сек
Цветовое пространство                    : YUV
Субдискретизация насыщенности            : 4:2:0
Битовая глубина                          : 8 бит
Тип развёртки                            : Прогрессивная
Бит/(Пиксели*Кадры)                      : 0.272
Размер потока                            : 7,80 Гбайт (77%)
Заголовок                                : That's.My.Boy.Theatrical.Cut.2012.BDRip.1080p.NNM-CLUB
Библиотека кодирования                   : x264 core 128 r2216 198a7ea
Настройки программы                      : cabac=1 / ref=4 / deblock=1:-3:-3 / analyse=0x3:0x133 / me=umh / subme=11 / psy=1 / psy_rd=1.25:0.10 / mixed_ref=1 / me_range=32 / chroma_me=1 / trellis=2 / 8x8dct=1 / cqm=0 / deadzone=21,11 / fast_pskip=0 / chroma_qp_offset=-2 / threads=12 / lookahead_threads=2 / sliced_threads=0 / nr=0 / decimate=1 / interlaced=0 / bluray_compat=0 / constrained_intra=0 / bframes=10 / b_pyramid=2 / b_adapt=2 / b_bias=0 / direct=3 / weightb=1 / open_gop=0 / weightp=2 / keyint=250 / keyint_min=23 / scenecut=40 / intra_refresh=0 / rc_lookahead=60 / rc=2pass / mbtree=1 / bitrate=10000 / ratetol=1.0 / qcomp=0.60 / qpmin=0 / qpmax=69 / qpstep=4 / cplxblur=20.0 / qblur=0.5 / vbv_maxrate=50000 / vbv_bufsize=50000 / nal_hrd=none / ip_ratio=1.40 / aq=1:1.20
Язык                                     : English
Default                                  : Нет
Forced                                   : Да
Аудио #1
Идентификатор                            : 2
Формат                                   : AC-3
Формат/Информация                        : Audio Coding 3
Расширение режима                        : CM (complete main)
Параметр Endianness формата              : Big
Идентификатор кодека                     : A_AC3
Продолжительность                        : 1 ч. 54 м.
Вид битрейта                             : Постоянный
Битрейт                                  : 640 Кбит/сек
Каналы                                   : 6 каналов
Расположение каналов                     : Front: L C R, Side: L R, LFE
Частота                                  : 48,0 КГц
Битовая глубина                          : 16 бит
Метод сжатия                             : С потерями
Размер потока                            : 524 Мбайт (5%)
Заголовок                                : AC3.640.Kbps.Russian
Язык                                     : Russian
Default                                  : Нет
Forced                                   : Да
Аудио #2
Идентификатор                            : 3
Формат                                   : AC-3
Формат/Информация                        : Audio Coding 3
Расширение режима                        : CM (complete main)
Параметр Endianness формата              : Big
Идентификатор кодека                     : A_AC3
Продолжительность                        : 1 ч. 54 м.
Вид битрейта                             : Постоянный
Битрейт                                  : 448 Кбит/сек
Каналы                                   : 6 каналов
Расположение каналов                     : Front: L C R, Side: L R, LFE
Частота                                  : 48,0 КГц
Битовая глубина                          : 16 бит
Метод сжатия                             : С потерями
Размер потока                            : 367 Мбайт (4%)
Заголовок                                : AC3.448.Kbps.Ukrainian
Язык                                     : Ukrainian
Default                                  : Нет
Forced                                   : Нет
Аудио #3
Идентификатор                            : 4
Формат                                   : DTS
Формат/Информация                        : Digital Theater Systems
Идентификатор кодека                     : A_DTS
Продолжительность                        : 1 ч. 54 м.
Вид битрейта                             : Постоянный
Битрейт                                  : 1510 Кбит/сек
Каналы                                   : 6 каналов
Расположение каналов                     : Front: L C R, Side: L R, LFE
Частота                                  : 48,0 КГц
Битовая глубина                          : 24 бит
Метод сжатия                             : С потерями
Задержка видео                           : 11 мс.
Размер потока                            : 1,21 Гбайт (12%)
Заголовок                                : DTS.1510.Kbps.English
Язык                                     : English
Default                                  : Нет
Forced                                   : Нет
Текст #1
Идентификатор                            : 5
Формат                                   : UTF-8
Идентификатор кодека                     : S_TEXT/UTF8
Идентификатор кодека/Информация          : UTF-8 Plain Text
Заголовок                                : Russian (Full)
Язык                                     : Russian
Default                                  : Нет
Forced                                   : Нет
Текст #2
Идентификатор                            : 6
Формат                                   : UTF-8
Идентификатор кодека                     : S_TEXT/UTF8
Идентификатор кодека/Информация          : UTF-8 Plain Text
Заголовок                                : Russian (Forced)
Язык                                     : Russian
Default                                  : Да
Forced                                   : Нет
Текст #3
Идентификатор                            : 7
Формат                                   : UTF-8
Идентификатор кодека                     : S_TEXT/UTF8
Идентификатор кодека/Информация          : UTF-8 Plain Text
Заголовок                                : Ukrainian (Forced)
Язык                                     : Ukrainian
Default                                  : Нет
Forced                                   : Нет
Текст #4
Идентификатор                            : 8
Формат                                   : UTF-8
Идентификатор кодека                     : S_TEXT/UTF8
Идентификатор кодека/Информация          : UTF-8 Plain Text
Заголовок                                : English (Full)
Язык                                     : English
Default                                  : Нет
Forced                                   : Нет
Меню
00:00:00.000                             : en:
00:08:33.763                             : en:
00:12:59.403                             : en:
00:19:42.890                             : en:
00:28:30.625                             : en:
00:36:19.594                             : en:
00:41:24.648                             : en:
00:47:24.049                             : en:
00:54:21.758                             : en:
01:00:19.073                             : en:
01:06:46.585                             : en:
01:15:04.333                             : en:
01:23:11.987                             : en:
01:27:55.019                             : en:
01:34:12.563                             : en:
01:45:36.747                             : en:
Скриншоты:



Время раздачи: 24/7 (до 10 скачавших)

[Цитировать]



Показать сообщения:    

Текущее время: 08-Дек 03:11

Часовой пояс: UTC + 3


Вы не можете начинать темы
Вы не можете отвечать на сообщения
Вы не можете редактировать свои сообщения
Вы не можете удалять свои сообщения
Вы не можете голосовать в опросах
Вы не можете прикреплять файлы к сообщениям
Вы не можете скачивать файлы

!ВНИМАНИЕ!
Сайт не предоставляет электронные версии произведений, а занимается лишь коллекционированием и каталогизацией ссылок, присылаемых и публикуемых на форуме нашими читателями. Если вы являетесь правообладателем какого-либо представленного материала и не желаете, чтобы ссылка на него находилась в нашем каталоге, свяжитесь с нами, и мы незамедлительно удалим ее. Файлы для обмена на трекере предоставлены пользователями сайта, и администрация не несет ответственности за их содержание. Просьба не заливать файлы, защищенные авторскими правами, а также файлы нелегального содержания!