[ Сегодня идет свободное скачивание без начисления Download ]


Статистика раздачи
Нет
 
   
 
Top  
 
 
-Отпуск по обмену / The Holiday (2006) BDRip- Русское название: Отпуск по обмену
Оригинальное название: The Holiday
Год выпуска: 2006
Страна: США
Жанр: Мелодрама, Комедия
Описание фильма:
Айрис Симпкинс, автор популярной свадебной колонки в лондонской «Daily Telegraph», живет в очаровательном коттедже в английской провинции. Она влюблена в мужчину, который любит другую. Далеко от нее в Южной Калифорнии живет Аманда Вудс, владелица процветающего рекламного агентства, занимающегося созданием роликов для фильмов. Она вдруг обнаруживает, что любимый человек ей изменяет.
Две незнакомые друг с другом женщины, живущие на расстоянии 10 000 километров друг от друга, оказываются в сходной ситуации. И они находят друг друга. В Интернете, на сайте обмена жильем на время отпуска. Перед Рождеством Айрис и Аманда решают отдохнуть от своих проблем, договорившись поменяться континентами и пожить друг у друга в течение двух недель. Айрис переезжает в дом Аманды в солнечной Калифорнии, а Аманда приезжает в засыпанную снегом английскую провинцию…

Режиссер: Нэнси Мейерс-
Актеры: Кэмерон Диаз, Кейт Уинслет, Джуд Лоу, Джек Блэк, Эли Уоллах, Эдвард Бёрнс, Руфус Сьюэлл, Миффи Энгелфилд, Эмма Притчард, Сара Пэриш-Продолжительность: 02:15:46
Перевод: Профессиональный (полное дублирование)
Язык субтитров: Русский, английский
Вид субтитров: Вшитые отключаемые- -Дата мировой премьеры: 5 декабря 2006
Дата российской премьеры: 7 декабря 2006, «UIP»
Дата выхода DVD релиза: 30 сентября 2008, «Мьюзик-Трейд»
Дата выхода Blu-Ray релиза: 17 августа 2010, «Юниверсал Пикчерс Рус»
Видеокодек: MPEG-4 AVC/H.264
Битрейт видео: ~7550 Кбит/сек
Размер кадра: 1920x1040
Качество видео: BDRip
Формат: MKV
Аудиокодек: AC3
Аудио #1: Русский ( AC3 / 5.1 / 48 kHz / 448 kbps ) - Дубляж
Аудио #2: Английский ( AC3 / 5.1 / 48 kHz / 384 kbps )
-

Знаете ли Вы, что...

• Героиня Кэмерон Диаз, приехав в дом по обмену, с бокалом в руке исполняет песню американской рок-группы The Killers «Mr.Brightside».
• Когда Айрис рассматривает коллекцию фильмов Аманды можно увидеть фильм «Энигма» (2001), в котором играла Кейт Уинслет.
• Нэнси Майерс всегда ставит актерам на съемках музыку, которая потом будет звучать в той или иной сцене, чтобы они лучше прочувствовали момент.
• Илаю Уоллеку, сыгравшего Артура Эббота, в момент съемок исполнилось 90 лет.
• В магазине DVD персонаж Джека Блэка берёт с витрины и показывает героине Уинслет фильм «Выпускник» 1967 года, а сзади них стоит Дастин Хоффман и кидает косые взгляды. В этом фильме Д. Хоффман исполнил главную роль.
-

MediaInfo

Общее
Уникальный идентификатор : 225908258961300220754024394550672168541 (0xA9F4591A93EC51F282A9239D594D165D)
Полное имя : E:\Интернет-загрузки\Готовые торренты\The Holiday(2006)BDRip-F.HD.mkv
Формат : Matroska
Версия формата : Version 2
Размер файла : 7,95 Гбайт
Продолжительность : 2 ч. 15 м.
Общий поток : 8380 Кбит/сек
Дата кодирования : UTC 2012-11-02 05:22:30
Программа кодирования : mkvmerge v5.8.0 ('No Sleep / Pillow') built on Sep 2 2012 15:37:04
Библиотека кодирования : libebml v1.2.3 + libmatroska v1.3.0
Видео
Идентификатор : 1
Формат : AVC
Формат/Информация : Advanced Video Codec
Профиль формата : [email protected]
Параметр CABAC формата : Да
Параметр ReFrames формата : 4 кадра
Идентификатор кодека : V_MPEG4/ISO/AVC
Продолжительность : 2 ч. 15 м.
Битрейт : 7550 Кбит/сек
Ширина : 1920 пикселей
Высота : 1040 пикселей
Соотношение сторон : 1,85:1
Режим частоты кадров : Постоянный
Частота кадров : 23,976 кадра/сек
Цветовое пространство : YUV
Субдискретизация насыщенности : 4:2:0
Битовая глубина : 8 бит
Тип развёртки : Прогрессивная
Бит/(Пиксели*Кадры) : 0.158
Размер потока : 7,00 Гбайт (88%)
Библиотека кодирования : x264 core 128 r2216 198a7ea
Настройки программы : cabac=1 / ref=4 / deblock=1:-3:-3 / analyse=0x3:0x113 / me=umh / subme=10 / psy=1 / psy_rd=1.00:0.15 / mixed_ref=1 / me_range=32 / chroma_me=1 / trellis=2 / 8x8dct=1 / cqm=0 / deadzone=21,11 / fast_pskip=0 / chroma_qp_offset=1 / threads=6 / lookahead_threads=1 / sliced_threads=0 / nr=0 / decimate=1 / interlaced=0 / bluray_compat=0 / constrained_intra=0 / bframes=9 / b_pyramid=2 / b_adapt=2 / b_bias=0 / direct=3 / weightb=1 / open_gop=0 / weightp=2 / keyint=240 / keyint_min=23 / scenecut=40 / intra_refresh=0 / rc=2pass / mbtree=0 / bitrate=7550 / ratetol=1.0 / qcomp=0.70 / qpmin=10 / qpmax=51 / qpstep=4 / cplxblur=20.0 / qblur=0.5 / ip_ratio=1.30 / pb_ratio=1.25 / aq=1:0.90
Язык : English
Default : Да
Forced : Нет
Основные цвета : BT.709
Характеристики трансфера : BT.709
Коэффициенты матрицы : BT.709
Аудио #1
Идентификатор : 2
Формат : AC-3
Формат/Информация : Audio Coding 3
Расширение режима : CM (complete main)
Параметр Endianness формата : Big
Идентификатор кодека : A_AC3
Продолжительность : 2 ч. 15 м.
Вид битрейта : Постоянный
Битрейт : 448 Кбит/сек
Каналы : 6 каналов
Расположение каналов : Front: L C R, Side: L R, LFE
Частота : 48,0 КГц
Битовая глубина : 16 бит
Метод сжатия : С потерями
Размер потока : 435 Мбайт (5%)
Язык : Russian
Default : Да
Forced : Нет
Аудио #2
Идентификатор : 3
Формат : AC-3
Формат/Информация : Audio Coding 3
Расширение режима : CM (complete main)
Параметр Endianness формата : Big
Идентификатор кодека : A_AC3
Продолжительность : 2 ч. 15 м.
Вид битрейта : Постоянный
Битрейт : 384 Кбит/сек
Каналы : 6 каналов
Расположение каналов : Front: L C R, Side: L R, LFE
Частота : 48,0 КГц
Битовая глубина : 16 бит
Метод сжатия : С потерями
Размер потока : 373 Мбайт (5%)
Язык : English
Default : Нет
Forced : Нет
Текст #1
Идентификатор : 4
Формат : UTF-8
Идентификатор кодека : S_TEXT/UTF8
Идентификатор кодека/Информация : UTF-8 Plain Text
Язык : Russian
Default : Нет
Forced : Нет
Текст #2
Идентификатор : 5
Формат : UTF-8
Идентификатор кодека : S_TEXT/UTF8
Идентификатор кодека/Информация : UTF-8 Plain Text
Язык : English
Default : Нет
Forced : Нет
Меню
00:00:00.000 : en:Chapter 01
00:05:44.344 : en:Chapter 02
00:09:46.210 : en:Chapter 03
00:10:53.402 : en:Chapter 04
00:16:00.125 : en:Chapter 05
00:18:25.938 : en:Chapter 06
00:24:11.283 : en:Chapter 07
00:28:27.080 : en:Chapter 08
00:33:07.402 : en:Chapter 09
00:38:45.781 : en:Chapter 10
00:48:01.837 : en:Chapter 11
00:52:26.685 : en:Chapter 12
00:55:58.271 : en:Chapter 13
01:00:03.725 : en:Chapter 14
01:02:28.286 : en:Chapter 15
01:08:59.677 : en:Chapter 16
01:11:42.631 : en:Chapter 17
01:15:51.004 : en:Chapter 18
01:20:11.515 : en:Chapter 19
01:22:13.094 : en:Chapter 20
01:24:50.543 : en:Chapter 21
01:28:10.743 : en:Chapter 22
01:31:30.151 : en:Chapter 23
01:33:54.629 : en:Chapter 24
01:36:25.821 : en:Chapter 25
01:41:07.936 : en:Chapter 26
01:49:10.377 : en:Chapter 27
02:02:41.812 : en:Chapter 28
02:15:45.887 : en:Chapter 29
-Скриншоты:




Время раздачи: с 10:00 до 24:00 ежедневно

[Цитировать]



Показать сообщения:    

Текущее время: 05-Дек 17:39

Часовой пояс: UTC + 3


Вы не можете начинать темы
Вы не можете отвечать на сообщения
Вы не можете редактировать свои сообщения
Вы не можете удалять свои сообщения
Вы не можете голосовать в опросах
Вы не можете прикреплять файлы к сообщениям
Вы не можете скачивать файлы

!ВНИМАНИЕ!
Сайт не предоставляет электронные версии произведений, а занимается лишь коллекционированием и каталогизацией ссылок, присылаемых и публикуемых на форуме нашими читателями. Если вы являетесь правообладателем какого-либо представленного материала и не желаете, чтобы ссылка на него находилась в нашем каталоге, свяжитесь с нами, и мы незамедлительно удалим ее. Файлы для обмена на трекере предоставлены пользователями сайта, и администрация не несет ответственности за их содержание. Просьба не заливать файлы, защищенные авторскими правами, а также файлы нелегального содержания!