[ Сегодня идет свободное скачивание без начисления Download ]


Статистика раздачи
Нет
 
   
 
Top  
 
 
-Руби Спаркс / Ruby Sparks (2012) BDRip
«Невероятная история любви, ставшая реальностью»
- Русское название: Руби Спаркс
Оригинальное название: Ruby Sparks
Год выпуска: 2012
Производство: США / Bona Fide Productions, Fox Searchlight Pictures
Жанр: Фэнтези, Мелодрама, Комедия
Перевод: Одноголосый закадровый, любительский
Озвучка / Автор перевода: Kenum
Субтитры: Вшитые отключаемые
Язык субтитров: Русский, Английский
Дата мировой премьеры: 25 июля 2012
Дата российской премьеры: 27 сентября 2012, «Двадцатый Век Фокс СНГ»
Режиссер: Джонатан Дэйтон, Валери Фэрис
Актеры: Пол Дано, Зои Казан, Антонио Бандерас, Аннетт Бенинг, Стив Куган, Эллиот Гулд, Крис Мессина, Аасиф Мандви, Тони Тракс, Дебора Энн Уолл
Описание фильма:
Молодой, но уже успешный писатель переживает творческие и душевные муки: новый роман никак не выходит, музы все нет, да и вообще с девушками как-то не клеится. И вот, призвав на помощь остатки своей фантазии, Кэлвин придумывает себе девушку по имени Руби Спаркс — умницу, красавицу, спортсменку, короче говоря, идеал, а спустя неделю… обнаруживает этот идеал из плоти и крови на своем собственном диване. Уходить Руби явно не собирается, но вот кем она окажется — Галатеей или Белочкой?..

Продолжительность: 01:44:06
Качество видео: BDRip
Видеокодек: MPEG-4 AVC/H.264
Битрейт видео: ~19,8 Мбит/сек
Размер кадра: 1920x1040
Аудио #1: Русский (DTS, 6 ch) 1510 Кбит/сек
Аудио #2: Английский (DTS, 6 ch) 1510 Кбит/сек

MediaInfo:

Общее
Уникальный идентификатор         : 225499412242518563303850392737029098401 (0xA9A59B677EBA3697B564A570216D0BA1)
Полное имя                       : H:\Rubi.Sparks.2012.L1.BDRip.1080p.mkv
Формат                           : Matroska
Версия формата                   : Version 2
Размер файла                     : 16,6 Гбайт
Продолжительность                : 1 ч. 44 м.
Общий поток                      : 22,8 Мбит/сек
Дата кодирования                 : UTC 2012-10-30 08:13:01
Программа кодирования            : mkvmerge v5.8.0 ('No Sleep / Pillow') built on Sep  2 2012 15:37:04
Библиотека кодирования           : libebml v1.2.3 + libmatroska v1.3.0
Видео
Идентификатор                    : 1
Формат                           : AVC
Формат/Информация                : Advanced Video Codec
Профиль формата                  : [url=mailto:High@L4.1]High@L4.1[/url]
Параметр CABAC формата           : Да
Параметр ReFrames формата        : 4 кадра
Идентификатор кодека             : V_MPEG4/ISO/AVC
Продолжительность                : 1 ч. 44 м.
Битрейт                          : 19,8 Мбит/сек
Ширина                           : 1920 пикселей
Высота                           : 1040 пикселей
Соотношение сторон               : 16:9
Частота кадров                   : 23,976 кадра/сек
Цветовое пространство            : YUV
Субдискретизация насыщенности    : 4:2:0
Битовая глубина                  : 8 бит
Тип развёртки                    : Прогрессивная
Бит/(Пиксели*Кадры)              : 0.414
Размер потока                    : 14,1 Гбайт (85%)
Библиотека кодирования           : x264 core 128 r2216+688+33 06dac27 tMod+MixAQ [8-bit@4:2:0 X86_64]
Настройки программы              : cabac=1 / ref=4 / deblock=1:-3:-3 / analyse=0x3:0x113 / me=umh / subme=11 / psy=1 / fade_compensate=0.00 / psy_rd=1.10:0.05 / mixed_ref=1 / me_range=48 / chroma_me=1 / trellis=2 / 8x8dct=1 / cqm=0 / deadzone=21,11 / fast_pskip=0 / chroma_qp_offset=-3 / threads=18 / lookahead_threads=3 / sliced_threads=0 / nr=0 / decimate=0 / interlaced=0 / bluray_compat=0 / constrained_intra=0 / fgo=0 / bframes=8 / b_pyramid=2 / b_adapt=2 / b_bias=0 / direct=3 / weightb=1 / open_gop=0 / weightp=2 / keyint=240 / keyint_min=24 / scenecut=40 / intra_refresh=0 / rc_lookahead=240 / rc=2pass / mbtree=1 / bitrate=19800 / ratetol=1.0 / qcomp=0.70 / qpmin=0 / qpmax=69 / qpstep=4 / cplxblur=20.0 / qblur=0.5 / ip_ratio=1.10 / aq=4 / aq-strength=0.85 / aq-sensitivity=10.00 / aq-ifactor=1.00 / aq-pfactor=1.00 / aq-bfactor=1.00 / aq2=0
Язык                             : English
Default                          : Да
Forced                           : Да
Аудио #1
Идентификатор                    : 2
Формат                           : DTS
Формат/Информация                : Digital Theater Systems
Идентификатор кодека             : A_DTS
Продолжительность                : 1 ч. 44 м.
Вид битрейта                     : Постоянный
Битрейт                          : 1510 Кбит/сек
Каналы                           : 6 каналов
Расположение каналов             : Front: L C R, Side: L R, LFE
Частота                          : 48,0 КГц
Битовая глубина                  : 24 бит
Метод сжатия                     : С потерями
Размер потока                    : 1,10 Гбайт (7%)
Язык                             : Russian
Default                          : Да
Forced                           : Да
Аудио #2
Идентификатор                    : 3
Формат                           : DTS
Формат/Информация                : Digital Theater Systems
Идентификатор кодека             : A_DTS
Продолжительность                : 1 ч. 44 м.
Вид битрейта                     : Постоянный
Битрейт                          : 1510 Кбит/сек
Каналы                           : 6 каналов
Расположение каналов             : Front: L C R, Side: L R, LFE
Частота                          : 48,0 КГц
Битовая глубина                  : 24 бит
Метод сжатия                     : С потерями
Размер потока                    : 1,10 Гбайт (7%)
Язык                             : English
Default                          : Нет
Forced                           : Нет
Текст #1
Идентификатор                    : 4
Формат                           : UTF-8
Идентификатор кодека             : S_TEXT/UTF8
Идентификатор кодека/Информация  : UTF-8 Plain Text
Язык                             : Russian
Default                          : Нет
Forced                           : Нет
Текст #2
Идентификатор                    : 5
Формат                           : UTF-8
Идентификатор кодека             : S_TEXT/UTF8
Идентификатор кодека/Информация  : UTF-8 Plain Text
Язык                             : English
Default                          : Нет
Forced                           : Нет
Меню
00:00:00.000                     : en:00:00:00.000
00:06:06.700                     : en:00:06:06.700
00:10:14.989                     : en:00:10:14.989
00:13:31.227                     : en:00:13:31.227
00:16:21.480                     : en:00:16:21.480
00:20:16.841                     : en:00:20:16.841
00:23:11.223                     : en:00:23:11.223
00:28:19.531                     : en:00:28:19.531
00:32:21.731                     : en:00:32:21.731
00:35:40.805                     : en:00:35:40.805
00:39:57.478                     : en:00:39:57.478
00:43:04.540                     : en:00:43:04.540
00:46:10.851                     : en:00:46:10.851
00:51:42.266                     : en:00:51:42.266
00:55:39.378                     : en:00:55:39.378
00:58:41.727                     : en:00:58:41.727
01:02:51.476                     : en:01:02:51.476
01:07:18.493                     : en:01:07:18.493
01:13:06.465                     : en:01:13:06.465
01:18:41.592                     : en:01:18:41.592
01:24:02.996                     : en:01:24:02.996
01:32:48.229                     : en:01:32:48.229
01:37:07.655                     : en:01:37:07.655
01:39:40.474                     : en:01:39:40.474
Скриншоты:



Время раздачи: 16.30-23.00 до 5 скачавших

[Цитировать]



Показать сообщения:    

Текущее время: 11-Дек 07:11

Часовой пояс: UTC + 3


Вы не можете начинать темы
Вы не можете отвечать на сообщения
Вы не можете редактировать свои сообщения
Вы не можете удалять свои сообщения
Вы не можете голосовать в опросах
Вы не можете прикреплять файлы к сообщениям
Вы не можете скачивать файлы

!ВНИМАНИЕ!
Сайт не предоставляет электронные версии произведений, а занимается лишь коллекционированием и каталогизацией ссылок, присылаемых и публикуемых на форуме нашими читателями. Если вы являетесь правообладателем какого-либо представленного материала и не желаете, чтобы ссылка на него находилась в нашем каталоге, свяжитесь с нами, и мы незамедлительно удалим ее. Файлы для обмена на трекере предоставлены пользователями сайта, и администрация не несет ответственности за их содержание. Просьба не заливать файлы, защищенные авторскими правами, а также файлы нелегального содержания!