[ Сегодня идет свободное скачивание без начисления Download ]


Статистика раздачи
Нет
 
   
 
Top  
 
 
-127 Часов / 127 Hours (2010) [720p] BDRip-«Важна каждая секунда» Русское название: 127 Часов
Оригинальное название: 127 Hours
Год выпуска: 2010
Жанр: Триллер, Драма, Приключения
Производство: США, Великобритания
Перевод: Дублированный, Авторский одноголосый
Описание фильма:
Неудержимый скалолаз и любитель спрятанных в каньонах пещер в очередной раз в одиночестве едет в горы и оказывается в смертельной ловушке. 127 часов без еды, без питья и практически без надежды выжить. Тут-то и проявляется сила характера…
Режиссер: Дэнни Бойл
Актеры: Джеймс Франко, Кейт Мара, Эмбер Тэмблин, Шон Ботт, Колман Стингер, Трит Уильямс, Джон Лоуренс, Кейт Бёртон, Бэйли Мишель, Джонсон Ребекка С. Олсон-Продолжительность: 01:33:41
Язык субтитров: Русские (полные, форсированные), Английские
Вид субтитров: Вшитые (Отключаемые)- -Дата мировой премьеры: 4 сентября 2010
Дата российской премьеры: 17 февраля 2011, «Фокс»
Дата выхода DVD релиза: 17 марта 2011, «Двадцатый Век Фокс СНГ»-Видеокодек: MPEG-4 AVC/H.264
Качество видео: BDRip [720p] (Исходник: Blu-ray)
Формат: MKV
Видео: MPEG-4 AVC, x264, 1 280 x 694 (16:9); 23.976 fps; ~5997 kbps; 0.282 bit/pixel
Аудио #1: 48 kHz, AC3 Dolby Digital, 3/2 (L,C,R,l,r) + LFE ch, ~640.00 kbps avg - Русский
Аудио #2: 48 kHz, AC3 Dolby Digital, 3/2 (L,C,R,l,r) + LFE ch, ~640.00 kbps avg - Авторский одноголосый
Аудио #3: 48 kHz, AC3 Dolby Digital, 3/2 (L,C,R,l,r) + LFE ch, ~640.00 kbps avg - Оригинальная дорожка [English]

MI

Общее
Уникальный идентификатор : 195976497892424014367734154076852446614 (0x936FB35878AC6EEE86270A7EAE4DE596)
Полное имя : D:\downloads\127.Chasov.2010.TRIPLE.BDRip.720p.x264.AC3.-HQ-ViDEO.mkv
Формат : Matroska
Версия формата : Version 2
Размер файла : 5,18 Гбайт
Продолжительность : 1 ч. 33 м.
Общий поток : 7915 Кбит/сек
Название фильма : 127 Hours (2010) BDRip [720p] / Release by HQ-ViDEO
Дата кодирования : UTC 2012-10-29 21:00:59
Программа кодирования : mkvmerge v5.6.0 ('Kenya Kane') built on May 27 2012 16:44:04
Библиотека кодирования : libebml v1.2.3 + libmatroska v1.3.0
Видео
Идентификатор : 1
Формат : AVC
Формат/Информация : Advanced Video Codec
Профиль формата : High@L4.1
Параметр CABAC формата : Да
Параметр ReFrames формата : 8 кадров
Идентификатор кодека : V_MPEG4/ISO/AVC
Продолжительность : 1 ч. 33 м.
Битрейт : 5997 Кбит/сек
Ширина : 1280 пикселей
Высота : 694 пикселя
Соотношение сторон : 1,85:1
Режим частоты кадров : Постоянный
Частота кадров : 23,976 кадра/сек
Цветовое пространство : YUV
Субдискретизация насыщенности : 4:2:0
Битовая глубина : 8 бит
Тип развёртки : Прогрессивная
Бит/(Пиксели*Кадры) : 0.282
Размер потока : 3,82 Гбайт (74%)
Заголовок : Encode by EbP
Библиотека кодирования : x264 core 114 r1913 5fd3dce
Настройки программы : cabac=1 / ref=8 / deblock=1:-3:-3 / analyse=0x3:0x113 / me=tesa / subme=10 / psy=1 / psy_rd=1.00:0.00 / mixed_ref=1 / me_range=16 / chroma_me=1 / trellis=2 / 8x8dct=1 / cqm=0 / deadzone=21,11 / fast_pskip=0 / chroma_qp_offset=-2 / threads=6 / sliced_threads=0 / nr=0 / decimate=0 / interlaced=0 / constrained_intra=0 / bframes=8 / b_pyramid=2 / b_adapt=2 / b_bias=0 / direct=3 / weightb=1 / open_gop=0 / weightp=2 / keyint=250 / keyint_min=23 / scenecut=40 / intra_refresh=0 / rc=2pass / mbtree=0 / bitrate=5997 / ratetol=1.0 / qcomp=0.60 / qpmin=0 / qpmax=69 / qpstep=4 / cplxblur=20.0 / qblur=0.5 / ip_ratio=1.40 / pb_ratio=1.30 / aq=1:0.80
Язык : English
Default : Да
Forced : Нет
Аудио #1
Идентификатор : 2
Формат : AC-3
Формат/Информация : Audio Coding 3
Расширение режима : CM (complete main)
Параметр Endianness формата : Big
Идентификатор кодека : A_AC3
Продолжительность : 1 ч. 33 м.
Вид битрейта : Постоянный
Битрейт : 640 Кбит/сек
Каналы : 6 каналов
Расположение каналов : Front: L C R, Side: L R, LFE
Частота : 48,0 КГц
Битовая глубина : 16 бит
Метод сжатия : С потерями
Размер потока : 429 Мбайт (8%)
Заголовок : AC3 5.1 @ 640 Kbps - DUB
Язык : Russian
Default : Да
Forced : Нет
Аудио #2
Идентификатор : 3
Формат : AC-3
Формат/Информация : Audio Coding 3
Расширение режима : CM (complete main)
Параметр Endianness формата : Big
Идентификатор кодека : A_AC3
Продолжительность : 1 ч. 33 м.
Вид битрейта : Постоянный
Битрейт : 640 Кбит/сек
Каналы : 6 каналов
Расположение каналов : Front: L C R, Side: L R, LFE
Частота : 48,0 КГц
Битовая глубина : 16 бит
Метод сжатия : С потерями
Размер потока : 429 Мбайт (8%)
Заголовок : AC3 5.1 @ 640 Kbps - AVO Serbin
Язык : Russian
Default : Нет
Forced : Нет
Аудио #3
Идентификатор : 4
Формат : AC-3
Формат/Информация : Audio Coding 3
Расширение режима : CM (complete main)
Параметр Endianness формата : Big
Идентификатор кодека : A_AC3
Продолжительность : 1 ч. 33 м.
Вид битрейта : Постоянный
Битрейт : 640 Кбит/сек
Каналы : 6 каналов
Расположение каналов : Front: L C R, Side: L R, LFE
Частота : 48,0 КГц
Битовая глубина : 16 бит
Метод сжатия : С потерями
Размер потока : 429 Мбайт (8%)
Заголовок : AC3 5.1 @ 640 Kbps
Язык : English
Default : Нет
Forced : Нет
Текст #1
Идентификатор : 5
Формат : UTF-8
Идентификатор кодека : S_TEXT/UTF8
Идентификатор кодека/Информация : UTF-8 Plain Text
Заголовок : Forced
Язык : Russian
Default : Да
Forced : Нет
Текст #2
Идентификатор : 6
Формат : UTF-8
Идентификатор кодека : S_TEXT/UTF8
Идентификатор кодека/Информация : UTF-8 Plain Text
Язык : Russian
Default : Нет
Forced : Нет
Текст #3
Идентификатор : 7
Формат : UTF-8
Идентификатор кодека : S_TEXT/UTF8
Идентификатор кодека/Информация : UTF-8 Plain Text
Язык : English
Default : Нет
Forced : Нет
Меню
00:00:00.000 : en:00:00:00.000
00:05:08.141 : en:00:05:08.141
00:07:55.975 : en:00:07:55.975
00:10:46.729 : en:00:10:46.729
00:14:42.924 : en:00:14:42.924
00:20:43.534 : en:00:20:43.534
00:25:02.209 : en:00:25:02.209
00:29:34.898 : en:00:29:34.898
00:32:16.434 : en:00:32:16.434
00:35:46.728 : en:00:35:46.728
00:40:12.368 : en:00:40:12.368
00:45:48.704 : en:00:45:48.704
00:48:48.968 : en:00:48:48.968
00:52:01.744 : en:00:52:01.744
00:56:05.988 : en:00:56:05.988
01:00:57.320 : en:01:00:57.320
01:03:19.629 : en:01:03:19.629
01:06:43.208 : en:01:06:43.208
01:10:24.262 : en:01:10:24.262
01:12:31.222 : en:01:12:31.222
01:15:33.237 : en:01:15:33.237
01:19:51.704 : en:01:19:51.704
01:23:28.545 : en:01:23:28.545
01:28:07.908 : en:01:28:07.908
- -Время раздачи: 9:00 - 16:00 МСК

[Цитировать]



Показать сообщения:    

Текущее время: 11-Дек 03:14

Часовой пояс: UTC + 3


Вы не можете начинать темы
Вы не можете отвечать на сообщения
Вы не можете редактировать свои сообщения
Вы не можете удалять свои сообщения
Вы не можете голосовать в опросах
Вы не можете прикреплять файлы к сообщениям
Вы не можете скачивать файлы

!ВНИМАНИЕ!
Сайт не предоставляет электронные версии произведений, а занимается лишь коллекционированием и каталогизацией ссылок, присылаемых и публикуемых на форуме нашими читателями. Если вы являетесь правообладателем какого-либо представленного материала и не желаете, чтобы ссылка на него находилась в нашем каталоге, свяжитесь с нами, и мы незамедлительно удалим ее. Файлы для обмена на трекере предоставлены пользователями сайта, и администрация не несет ответственности за их содержание. Просьба не заливать файлы, защищенные авторскими правами, а также файлы нелегального содержания!