[ Сегодня идет свободное скачивание без начисления Download ]


Статистика раздачи
Нет
 
   
 
Top  
 
 
[gposter=right]http://twinpix.nu/uploads/full/215297.jpg[/gposter]
Название: На цепи
Оригинальное название: Chained
Год выпуска: 2012
Жанр: ужасы, триллер
Режиссер: Дженнифер Чэмберс Линч
В ролях: Винсент Д’Онофрио, Джулия Ормонд, Имон Фэррен, Джина Филипс, Джейк Уэбер, Конор Лесли, Ивэн Бёрд, Эми Матисио
Описание: Восьмилетний паренек Тим и его мать подсаживаются в такси к Бобу — невменяемому водителю, как раз подыскивающего себе новую жертву. После убийства женщины Тим становится марионеткой в руках психа, вынуждающего его хоронить тела. Хватит ли подростку мужества разорвать ужасную связь судьбы, все крепче стягивающую его с убийцей…

Страна: Канада
Продолжительность: ~ 01:34:00
Перевод: Профессиональный (многоголосый, закадровый) - Baibako
Субтитры: нет
Перевод: Lub_a
Озвучка: Татьяна Оболевич, Лира Грим, Дим Димыч и Сергей Корчак
Сведение: Vitall Digitall
Качество: BDRip
Формат: AVI
Видео: XviD, 2271 Кбит/сек, 720x304, 23,976 кадра/сек
Аудио rus: MP3, 2 канала, 192 Кбит/сек
Аудио eng: MP3, 2 канала, 192 Кбит/сек

MI

Полное имя : D:Chained.2012.BDRip.XviD.Rus.Eng.BaibaKo.tv.avi
Формат : AVI
Формат/Информация : Audio Video Interleave
Размер файла : 1,75 Гбайт
Продолжительность : 1 ч. 34 м.
Общий поток : 2662 Кбит/сек
Видео
Идентификатор : 0
Формат : MPEG-4 Visual
Профиль формата : Advanced [email protected]
Параметр BVOP формата : 2
Параметр QPel формата : Нет
Параметр GMC формата : Без точки перехода
Параметр матрицы формата : Default (H.263)
Идентификатор кодека : XVID
Идентификатор кодека/Подсказка : XviD
Продолжительность : 1 ч. 34 м.
Битрейт : 2271 Кбит/сек
Ширина : 720 пикс.
Высота : 304 пикс.
Соотношение сторон : 2,35:1
Частота кадров : 23,976 кадр/сек
Цветовое пространство : YUV
Подвыборка цветности : 4:2:0
Битовая глубина : 8 бит
Тип развёртки : Прогрессивная
Метод сжатия : С потерями
Бит/(Пиксели*Кадры) : 0.433
Размер потока : 1,49 Гбайт (85%)
Библиотека кодирования : XviD 1.2.1 (UTC 2008-12-04)
Аудио #1
Идентификатор : 1
Формат : MPEG Audio
Версия формата : Version 1
Профиль формата : Layer 3
Режим : Joint stereo
Идентификатор кодека : 55
Идентификатор кодека/Подсказка : MP3
Продолжительность : 1 ч. 34 м.
Вид битрейта : Постоянный
Битрейт : 192 Кбит/сек
Каналы : 2 канала
Частота : 48,0 КГц
Метод сжатия : С потерями
Размер потока : 129 Мбайт (7%)
Выравнивание : Соединение по промежуткам
Продолжительность промежутка : 167 мс. (4,00 видеокадра)
Время предзагрузки промежутка : 216 ms
Заголовок : Chained.2012.HD720p.BluRay.Rus.Eng.BaibaKo.tv - [1] Russian_audio
Библиотека кодирования : LAME3.99r
Настройки программы : -m j -V 4 -q 2 -lowpass 18.6 -b 192
Аудио #2
Идентификатор : 2
Формат : MPEG Audio
Версия формата : Version 1
Профиль формата : Layer 3
Режим : Joint stereo
Расширение режима : MS Stereo
Идентификатор кодека : 55
Идентификатор кодека/Подсказка : MP3
Продолжительность : 1 ч. 34 м.
Вид битрейта : Постоянный
Битрейт : 192 Кбит/сек
Каналы : 2 канала
Частота : 48,0 КГц
Метод сжатия : С потерями
Размер потока : 129 Мбайт (7%)
Выравнивание : Соединение по промежуткам
Продолжительность промежутка : 167 мс. (4,00 видеокадра)
Время предзагрузки промежутка : 216 ms
Заголовок : Chained.2012.HD720p.BluRay.Rus.Eng.BaibaKo.tv - [2] English_audio
Библиотека кодирования : LAME3.99r
Настройки программы : -m j -V 4 -q 2 -lowpass 18.6 -b 192

Скриншоты на FastPic

Скриншоты на TwinPix

Релиз от:

[Цитировать]



Показать сообщения:    

Текущее время: 04-Дек 23:19

Часовой пояс: UTC + 3


Вы не можете начинать темы
Вы не можете отвечать на сообщения
Вы не можете редактировать свои сообщения
Вы не можете удалять свои сообщения
Вы не можете голосовать в опросах
Вы не можете прикреплять файлы к сообщениям
Вы не можете скачивать файлы

!ВНИМАНИЕ!
Сайт не предоставляет электронные версии произведений, а занимается лишь коллекционированием и каталогизацией ссылок, присылаемых и публикуемых на форуме нашими читателями. Если вы являетесь правообладателем какого-либо представленного материала и не желаете, чтобы ссылка на него находилась в нашем каталоге, свяжитесь с нами, и мы незамедлительно удалим ее. Файлы для обмена на трекере предоставлены пользователями сайта, и администрация не несет ответственности за их содержание. Просьба не заливать файлы, защищенные авторскими правами, а также файлы нелегального содержания!