[ Сегодня идет свободное скачивание без начисления Download ]


Статистика раздачи
Нет
 
   
 
Top  
 
 
- Темный рыцарь: Возрождение легенды / The Dark Knight Rises (2012) [1080p] BDRemux- «И разгорится пламя» - Название: Темный рыцарь: Возрождение легенды
Оригинальное название: The Dark Knight Rises
Год выпуска: 2012
Жанр: Фантастика, боевик, триллер, драма
Выпущено: США, Великобритания, Warner Bros. Pictures, DC Entertainment, Legendary Pictures
Описание фильма:
Восемь лет назад Бэтмен растворился в ночи, превратившись из героя в беглеца. Приняв на себя вину за смерть прокурора Харви Дента, Темный рыцарь пожертвовал всем. Вместе с комиссаром Гордоном они решили, что так будет лучше для всех. Пока преступность была раздавлена антикриминальным актом Дента, ложь действовала. Но с появлением хитрой воровки с загадочным прошлым всё меняется. Тем не менее, еще опаснее становится появление террориста Бэйна, чье лицо закрыто маской. Он разворачивает в Готэме чудовищную деятельность, вынуждая Брюса Уэйна выйти из импровизированного изгнания. Однако даже надев свой костюм, Бэтмен может проиграть Бэйну.
Режиссер: Кристофер Нолан
В ролях: Кристиан Бэйл, Том Харди, Энн Хэтэуэй, Джозеф Гордон-Левитт, Марион Котийяр, Гари Олдман, Морган Фриман, Майкл Кейн, Лиам Нисон, Мэтью Модайн
Продолжительность: 02:44:32
Перевод: Дублированный (русский и украинский), Одноголосый закадровый (авторский - Ю.Сербин)
Субтитры: Русские (форсированные + полные - Blu-ray CEE), Английские (полные)-
Рейтинг MPAA: PG 13– лицам до 13 лет обязательное присутствие родителей!!!
Дата мировой премьеры: 16 июля 2012
Дата РФ премьеры: 26 июля 2012, «Каро-Премьер»
Дата DVD премьеры: 28 ноября 2012, «CP Дистрибуция»-Релиз от:
Видеокодек: MPEG-4 AVC
Битрейт видео: ~ 23977 kbps
Размер кадра: 1920х1080
Качество видео: BDRemux (batonchik)
Аудио:
1: Русский: DTS-HD HR, 3/2 ch, ~ 3900 Kb/s (DTS Core: 5.1 / 48 kHz / 1509 kbps / 24-bit) |Дубляж Custom|
(Спасибо vit135 )
2: Русский: DTS-HD HR, 3/2 ch, ~ 3018 Kb/s (DTS Core: 5.1 / 48 kHz / 1509 kbps / 24-bit)|Одноголосый закадровый, Ю.Сербин|
3: Русский: AC3, 3/2 ch, ~ 448 kb/s / 16-bit |Дубляж c BD CEE|
4: Украинский: AC3, 3/2 ch, ~ 448 kb/s / 16-bit |Дубляж c BD CEE|
5: Английский: DTS-HD MA, 3/2 ch, ~ 4018 kb/s (DTS Core: 5.1 / 48 kHz / 1509 kbps / 24-bit) |Оригинал|
6: Английский: AC3, 2 ch, ~ 192 kb/s / 16-bit |Оригинал|

MediaInfo 0.7.61

Общее
Уникальный идентификатор : 235950497580583946914504447040884161670 (0xB18269B1BD831A84BBDC943F0D2DBC86)
Полное имя :The Dark Knight Rises.2012.BDRemux.NNM-CLUB.mkv
Формат : Matroska
Версия формата : Version 4 / Version 2
Размер файла : 41,5 Гбайт
Продолжительность : 2 ч. 44 м.
Режим общего битрейта : Переменный
Общий поток : 36,1 Мбит/сек
Название фильма : Tемный рыцарь: Возрождение легенды.2012.BDRemux.NNM-CLUB
Дата кодирования : UTC 2013-02-11 21:48:46
Программа кодирования : mkvmerge v6.0.0 ('Coming Up For Air') built on Jan 20 2013 09:52:00
Библиотека кодирования : libebml v1.3.0 + libmatroska v1.4.0
Видео
Идентификатор : 1
Формат : AVC
Формат/Информация : Advanced Video Codec
Профиль формата : High@L4.1
Параметр CABAC формата : Да
Параметр ReFrames формата : 2 кадра
Параметр GOP формата : M=1, N=10
Режим смешивания : Container profile=Unknown@0.0
Идентификатор кодека : V_MPEG4/ISO/AVC
Продолжительность : 2 ч. 44 м.
Вид битрейта : Переменный
Ширина : 1920 пикселей
Высота : 1080 пикселей
Соотношение сторон : 16:9
Режим частоты кадров : Постоянный
Частота кадров : 23,976 кадра/сек
Цветовое пространство : YUV
Субдискретизация насыщенности : 4:2:0
Битовая глубина : 8 бит
Тип развёртки : Прогрессивная
Заголовок : The Dark Knight Rises.2012.BDRemux.NNM-CLUB
Язык : English
Default : Нет
Forced : Нет
Аудио #1
Идентификатор : 2
Формат : DTS
Формат/Информация : Digital Theater Systems
Профиль формата : MA / Core
Режим : 16
Параметр Endianness формата : Big
Идентификатор кодека : A_DTS
Продолжительность : 2 ч. 44 м.
Вид битрейта : Переменный
Битрейт : Неизвестно / 1509 Кбит/сек
Каналы : 6 каналов
Расположение каналов : Front: L C R, Side: L R, LFE
Частота : 48,0 КГц
Битовая глубина : 24 бит
Метод сжатия : Без потерь / Lossy
Заголовок : Дубляж - DTS-HD MA
Язык : Russian
Default : Да
Forced : Нет
Аудио #2
Идентификатор : 3
Формат : DTS
Формат/Информация : Digital Theater Systems
Профиль формата : HRA / Core
Режим : 16
Параметр Endianness формата : Big
Идентификатор кодека : A_DTS
Продолжительность : 2 ч. 44 м.
Вид битрейта : Постоянный
Битрейт : 3018 Кбит/сек / 1509 Кбит/сек
Каналы : 6 каналов
Расположение каналов : Front: L C R, Side: L R, LFE
Частота : 48,0 КГц
Битовая глубина : 24 бит
Метод сжатия : С потерями
Размер потока : 3,47 Гбайт (8%)
Заголовок : Одноголосый закадровый - Ю.Сербин - DTS-HD MA
Язык : Russian
Default : Нет
Forced : Нет
Аудио #3
Идентификатор : 4
Формат : AC-3
Формат/Информация : Audio Coding 3
Расширение режима : CM (complete main)
Параметр Endianness формата : Big
Идентификатор кодека : A_AC3
Продолжительность : 2 ч. 44 м.
Вид битрейта : Постоянный
Битрейт : 448 Кбит/сек
Каналы : 6 каналов
Расположение каналов : Front: L C R, Side: L R, LFE
Частота : 48,0 КГц
Битовая глубина : 16 бит
Метод сжатия : С потерями
Размер потока : 527 Мбайт (1%)
Заголовок : Дубляж - AC3 (BD CEE)
Язык : Russian
Default : Нет
Forced : Нет
Аудио #4
Идентификатор : 5
Формат : AC-3
Формат/Информация : Audio Coding 3
Расширение режима : CM (complete main)
Параметр Endianness формата : Big
Идентификатор кодека : A_AC3
Продолжительность : 2 ч. 44 м.
Вид битрейта : Постоянный
Битрейт : 448 Кбит/сек
Каналы : 6 каналов
Расположение каналов : Front: L C R, Side: L R, LFE
Частота : 48,0 КГц
Битовая глубина : 16 бит
Метод сжатия : С потерями
Размер потока : 527 Мбайт (1%)
Заголовок : Дубляж - AC3
Язык : Ukrainian
Default : Нет
Forced : Нет
Аудио #5
Идентификатор : 6
Формат : DTS
Формат/Информация : Digital Theater Systems
Профиль формата : MA / Core
Режим : 16
Параметр Endianness формата : Big
Идентификатор кодека : A_DTS
Продолжительность : 2 ч. 44 м.
Вид битрейта : Переменный
Битрейт : Неизвестно / 1509 Кбит/сек
Каналы : 6 каналов
Расположение каналов : Front: L C R, Side: L R, LFE
Частота : 48,0 КГц
Битовая глубина : 24 бит
Метод сжатия : Без потерь / Lossy
Заголовок : Оригинал - DTS-HD MA
Язык : English
Default : Нет
Forced : Нет
Аудио #6
Идентификатор : 7
Формат : AC-3
Формат/Информация : Audio Coding 3
Профиль формата : Dolby Digital
Расширение режима : CM (complete main)
Параметр Endianness формата : Big
Идентификатор кодека : A_AC3
Продолжительность : 2 ч. 44 м.
Вид битрейта : Постоянный
Битрейт : 192 Кбит/сек
Каналы : 2 канала
Расположение каналов : Front: L R
Частота : 48,0 КГц
Битовая глубина : 16 бит
Метод сжатия : С потерями
Размер потока : 226 Мбайт (1%)
Заголовок : Оригинал
Язык : English
Default : Нет
Forced : Нет
Текст #1
Идентификатор : 8
Формат : UTF-8
Идентификатор кодека : S_TEXT/UTF8
Идентификатор кодека/Информация : UTF-8 Plain Text
Заголовок : Форсированные
Язык : Russian
Default : Да
Forced : Нет
Текст #2
Идентификатор : 9
Формат : UTF-8
Идентификатор кодека : S_TEXT/UTF8
Идентификатор кодека/Информация : UTF-8 Plain Text
Заголовок : Полные
Язык : Russian
Default : Нет
Forced : Нет
Текст #3
Идентификатор : 10
Формат : UTF-8
Идентификатор кодека : S_TEXT/UTF8
Идентификатор кодека/Информация : UTF-8 Plain Text
Заголовок : Полные
Язык : English
Default : Нет
Forced : Нет
Меню
00:00:00.000 : en:Chapter 01
00:09:02.833 : en:Chapter 02
00:19:08.522 : en:Chapter 03
00:30:15.855 : en:Chapter 04
00:41:08.799 : en:Chapter 05
00:51:09.524 : en:Chapter 06
01:00:29.667 : en:Chapter 07
01:10:04.033 : en:Chapter 08
01:20:13.475 : en:Chapter 09
01:31:00.580 : en:Chapter 10
01:39:24.291 : en:Chapter 01
01:48:58.490 : en:Chapter 11
02:00:21.589 : en:Chapter 12
02:10:47.673 : en:Chapter 12
02:19:12.635 : en:Chapter 13
02:30:14.630 : en:Chapter 14
02:36:50.526 : en:Chapter 15

[Цитировать]



Показать сообщения:    

Текущее время: 08-Дек 01:18

Часовой пояс: UTC + 3


Вы не можете начинать темы
Вы не можете отвечать на сообщения
Вы не можете редактировать свои сообщения
Вы не можете удалять свои сообщения
Вы не можете голосовать в опросах
Вы не можете прикреплять файлы к сообщениям
Вы не можете скачивать файлы

!ВНИМАНИЕ!
Сайт не предоставляет электронные версии произведений, а занимается лишь коллекционированием и каталогизацией ссылок, присылаемых и публикуемых на форуме нашими читателями. Если вы являетесь правообладателем какого-либо представленного материала и не желаете, чтобы ссылка на него находилась в нашем каталоге, свяжитесь с нами, и мы незамедлительно удалим ее. Файлы для обмена на трекере предоставлены пользователями сайта, и администрация не несет ответственности за их содержание. Просьба не заливать файлы, защищенные авторскими правами, а также файлы нелегального содержания!