[ Сегодня идет свободное скачивание без начисления Download ]


Статистика раздачи
Нет
 
   
 
Top  
 
 
-Голубая бездна [Режиссерская версия] / Le grand bleu [Version Longue] (1988) [720p] BDRip- Русское название: Голубая бездна [Режиссерская версия]
Оригинальное название: Le grand bleu [Version Longue]
Год выпуска: 1988
Жанр: Драма
Описание фильма:
Два друга — Энцо Молинари и Жак Майоль — вместе росли на одном из греческих островов. Отец Жака, ныряльщик, погиб при сборе устриц из-за неисправности водолазного оборудования. Проходят годы, мальчики уже выросли и снова встречаются после нескольких лет разлуки. Оба стали ныряльщиками на глубину без воздуха, и соревнование на чемпионатах мира практически ведется только между ними.
Симпатичная работница страхового агентства Джоан, влюбляется в Жака с первого взгляда и едет за ним из Перу в Сицилию, где и становится свидетельницей начала опасного поединка между друзьями. От Жака она уже ждет ребенка. А друзья погружаются все на большую и большую глубину. Пройдена отметка в 120 метров. Для Жака и Энцо голубая бездна лучше, чем жизнь на земле.
Режиссер: Люк Бессон
Актеры: Жан Рено, Жан-Марк Барр, Розанна Аркетт, Пол Шенар, Серджо Кастеллитто, Жан Буиз, Гриффин Данн, Андреас Вуцинас, Валентина Варгас
Продолжительность: 02:48:20
Перевод: Многоголосый закадровый, двухголосый закадровый (П.Гланц, И.Королёва), одноголосый закадровый (Ю.Живов), дублированный (ЛенФильм)
Язык субтитров: Русский, Английский
Вид субтитров: Вшитые отключаемые

Дата мировой премьеры: 11 мая 1988
Дата выхода DVD релиза: 1 декабря 2010, «Кармен Видео»
Видеокодек: MPEG-4 AVC/H.264
Битрейт видео: ~5800 kb/s
Размер кадра: 1280x544
Качество видео: BDRip
Аудио 1: АС3 5.1, 640 kbps - Русский многоголосый закадровый
Аудио 2: АС3 5.1, 640 kbps - Русский одноголосый закадровый (Ю.Живов)
Аудио 3: АС3 5.1, 640 kbps - Русский двухголосый закадровый (П.Гланц, И.Королёва)
Аудио 4: АС3 2.0, 192 kbps - Русский дублирование (ЛенФильм)
Аудио 5: АС3 5.1, 448 kbps - Английский
Аудио 6: АС3 5.1, 640 kbps - Французский

MI

General
Unique ID                                : 239053075098699363672596321622722155162 (0xB3D7F2937DDB10FB9E7D3F4F7C9D129A)
Complete name                            : D:\x264\x264\out\The Big Blue.1988.DC.720p.BDRip.4xRu.EN.FR.NNM-RU.mkv
Format                                   : Matroska
Format version                           : Version 4 / Version 2
File size                                : 10.6 GiB
Duration                                 : 2h 48mn
Overall bit rate                         : 9 003 Kbps
Movie name                               : Le grand bleu (1988) Release for NNM-CLUB by gekka
Encoded date                             : UTC 2013-02-11 15:20:15
Writing application                      : mkvmerge v6.0.0 ('Coming Up For Air') built on Jan 20 2013 09:52:00
Writing library                          : libebml v1.3.0 + libmatroska v1.4.0
Video
ID                                       : 1
Format                                   : AVC
Format/Info                              : Advanced Video Codec
Format profile                           : [url=mailto:High@L4.1]High@L4.1[/url]
Format settings, CABAC                   : Yes
Format settings, ReFrames                : 12 frames
Codec ID                                 : V_MPEG4/ISO/AVC
Duration                                 : 2h 48mn
Bit rate                                 : 5 800 Kbps
Width                                    : 1 280 pixels
Height                                   : 544 pixels
Display aspect ratio                     : 2.35:1
Frame rate mode                          : Constant
Frame rate                               : 23.976 fps
Color space                              : YUV
Chroma subsampling                       : 4:2:0
Bit depth                                : 8 bits
Scan type                                : Progressive
Bits/(Pixel*Frame)                       : 0.347
Stream size                              : 6.61 GiB (62%)
Title                                    : Le grand bleu (1988) Release for NNM-CLUB by gekka
Writing library                          : x264 core 129 r2245+704+36 8e61944 tMod+MixAQ [8-bit@all X86_64]
Encoding settings                        : cabac=1 / ref=13 / deblock=1:-3:-3 / analyse=0x3:0x113 / me=umh / subme=11 / psy=1 / fade_compensate=0.80 / psy_rd=1.05:0.15 / mixed_ref=1 / me_range=48 / chroma_me=1 / trellis=2 / 8x8dct=1 / cqm=0 / deadzone=21,11 / fast_pskip=0 / chroma_qp_offset=-3 / threads=18 / lookahead_threads=3 / sliced_threads=0 / nr=0 / decimate=0 / interlaced=0 / bluray_compat=0 / constrained_intra=0 / fgo=3 / bframes=10 / b_pyramid=1 / b_adapt=2 / b_bias=0 / direct=3 / weightb=1 / open_gop=0 / weightp=2 / keyint=250 / keyint_min=23 / scenecut=40 / intra_refresh=0 / rc_lookahead=120 / rc=2pass / mbtree=1 / bitrate=5800 / ratetol=1.0 / qcomp=0.70 / qpmin=0 / qpmax=69 / qpstep=4 / cplxblur=20.0 / qblur=0.5 / vbv_maxrate=25000 / vbv_bufsize=25000 / nal_hrd=none / ip_ratio=1.40 / aq=4 / aq-strength=0.90 / aq-sensitivity=10.00 / aq-ifactor=1.00 / aq-pfactor=1.00 / aq-bfactor=1.00 / aq2=0 / zones=235029,242164,q=40
Language                                 : French
Default                                  : Yes
Forced                                   : No
Matrix coefficients                      : BT.709
Audio #1
ID                                       : 2
Format                                   : AC-3
Format/Info                              : Audio Coding 3
Mode extension                           : CM (complete main)
Format settings, Endianness              : Big
Codec ID                                 : A_AC3
Duration                                 : 2h 48mn
Bit rate mode                            : Constant
Bit rate                                 : 640 Kbps
Channel(s)                               : 6 channels
Channel positions                        : Front: L C R, Side: L R, LFE
Sampling rate                            : 48.0 KHz
Bit depth                                : 16 bits
Compression mode                         : Lossy
Stream size                              : 771 MiB (7%)
Title                                    : Russian MVO
Language                                 : Russian
Default                                  : Yes
Forced                                   : No
Audio #2
ID                                       : 3
Format                                   : AC-3
Format/Info                              : Audio Coding 3
Mode extension                           : CM (complete main)
Format settings, Endianness              : Big
Codec ID                                 : A_AC3
Duration                                 : 2h 48mn
Bit rate mode                            : Constant
Bit rate                                 : 640 Kbps
Channel(s)                               : 6 channels
Channel positions                        : Front: L C R, Side: L R, LFE
Sampling rate                            : 48.0 KHz
Bit depth                                : 16 bits
Compression mode                         : Lossy
Stream size                              : 771 MiB (7%)
Title                                    : Russian DVO - Glanz&Koroleva
Language                                 : Russian
Default                                  : No
Forced                                   : No
Audio #3
ID                                       : 4
Format                                   : AC-3
Format/Info                              : Audio Coding 3
Mode extension                           : CM (complete main)
Format settings, Endianness              : Big
Codec ID                                 : A_AC3
Duration                                 : 2h 48mn
Bit rate mode                            : Constant
Bit rate                                 : 640 Kbps
Channel(s)                               : 6 channels
Channel positions                        : Front: L C R, Side: L R, LFE
Sampling rate                            : 48.0 KHz
Bit depth                                : 16 bits
Compression mode                         : Lossy
Stream size                              : 771 MiB (7%)
Title                                    : Russian VO - Jivov
Language                                 : Russian
Default                                  : No
Forced                                   : No
Audio #4
ID                                       : 5
Format                                   : AC-3
Format/Info                              : Audio Coding 3
Format profile                           : Dolby Digital
Mode extension                           : CM (complete main)
Format settings, Endianness              : Big
Codec ID                                 : A_AC3
Duration                                 : 2h 48mn
Bit rate mode                            : Constant
Bit rate                                 : 192 Kbps
Channel(s)                               : 2 channels
Channel positions                        : Front: L R
Sampling rate                            : 48.0 KHz
Bit depth                                : 16 bits
Compression mode                         : Lossy
Stream size                              : 231 MiB (2%)
Title                                    : Russian - LenFilm
Language                                 : Russian
Default                                  : No
Forced                                   : No
Audio #5
ID                                       : 6
Format                                   : AC-3
Format/Info                              : Audio Coding 3
Mode extension                           : CM (complete main)
Format settings, Endianness              : Big
Codec ID                                 : A_AC3
Duration                                 : 2h 48mn
Bit rate mode                            : Constant
Bit rate                                 : 448 Kbps
Channel(s)                               : 6 channels
Channel positions                        : Front: L C R, Side: L R, LFE
Sampling rate                            : 48.0 KHz
Bit depth                                : 16 bits
Compression mode                         : Lossy
Stream size                              : 539 MiB (5%)
Title                                    : English
Language                                 : English
Default                                  : No
Forced                                   : No
Audio #6
ID                                       : 7
Format                                   : AC-3
Format/Info                              : Audio Coding 3
Mode extension                           : CM (complete main)
Format settings, Endianness              : Big
Codec ID                                 : A_AC3
Duration                                 : 2h 48mn
Bit rate mode                            : Constant
Bit rate                                 : 640 Kbps
Channel(s)                               : 6 channels
Channel positions                        : Front: L C R, Side: L R, LFE
Sampling rate                            : 48.0 KHz
Bit depth                                : 16 bits
Compression mode                         : Lossy
Stream size                              : 771 MiB (7%)
Title                                    : French
Language                                 : French
Default                                  : No
Forced                                   : No
Text #1
ID                                       : 8
Format                                   : UTF-8
Codec ID                                 : S_TEXT/UTF8
Codec ID/Info                            : UTF-8 Plain Text
Language                                 : Russian
Default                                  : Yes
Forced                                   : No
Text #2
ID                                       : 9
Format                                   : UTF-8
Codec ID                                 : S_TEXT/UTF8
Codec ID/Info                            : UTF-8 Plain Text
Language                                 : Russian
Default                                  : No
Forced                                   : No
Text #3
ID                                       : 10
Format                                   : UTF-8
Codec ID                                 : S_TEXT/UTF8
Codec ID/Info                            : UTF-8 Plain Text
Language                                 : English
Default                                  : No
Forced                                   : No
Menu
00:00:00.000                             : en:00:00:00.000
00:09:20.310                             : en:00:09:20.310
00:16:02.336                             : en:00:16:02.336
00:25:46.587                             : en:00:25:46.587
00:35:53.401                             : en:00:35:53.401
00:45:21.761                             : en:00:45:21.761
00:54:19.214                             : en:00:54:19.214
01:04:35.497                             : en:01:04:35.497
01:14:37.640                             : en:01:14:37.640
01:24:21.014                             : en:01:24:21.014
01:34:20.530                             : en:01:34:20.530
01:44:51.202                             : en:01:44:51.202
01:56:25.520                             : en:01:56:25.520
02:07:14.585                             : en:02:07:14.585
02:16:27.513                             : en:02:16:27.513
02:27:29.883                             : en:02:27:29.883
02:36:27.545                             : en:02:36:27.545
02:43:59.788                             : en:02:43:59.788

x264 Log

x264 [info]: frame I:1664  Avg QP:16.21  size:118129
x264 [info]: frame P:49551 Avg QP:19.37  size: 51469
x264 [info]: frame B:190949 Avg QP:20.53  size: 23960
x264 [info]: consecutive B-frames:  1.0%  1.2%  5.0% 24.8% 21.5% 34.6%  7.8%  2.4%  0.9%  0.4%  0.4%
x264 [info]: mb I  I16..4: 10.1% 70.4% 19.5%
x264 [info]: mb P  I16..4:  0.5%  7.5%  1.4%  P16..4: 25.6% 41.1% 20.1%  0.0%  0.0%    skip: 3.8%
x264 [info]: mb B  I16..4:  0.1%  1.4%  0.2%  B16..8: 37.6% 26.0%  6.5%  direct:10.7%  skip:17.4%  L0:40.7% L1:42.6% BI:16.6%
x264 [info]: 8x8 transform intra:79.1% inter:49.1%
x264 [info]: direct mvs  spatial:97.5% temporal:2.5%
x264 [info]: coded y,uvDC,uvAC intra: 94.2% 77.2% 54.0% inter: 52.2% 32.6% 8.6%
x264 [info]: i16 v,h,dc,p: 60%  9% 12% 19%
x264 [info]: i8 v,h,dc,ddl,ddr,vr,hd,vl,hu:  6% 11%  7% 10% 15% 11% 15% 10% 15%
x264 [info]: i4 v,h,dc,ddl,ddr,vr,hd,vl,hu:  6%  9%  5%  8% 15% 12% 17% 10% 17%
x264 [info]: i8c dc,h,v,p: 22% 20%  9% 49%
x264 [info]: Weighted P-Frames: Y:97.8% UV:2.0%
x264 [info]: ref P L0: 42.7% 11.6% 15.3%  7.8%  5.8%  4.5%  3.7%  2.2%  1.9%  1.7%  1.5%  1.4%  0.1%  0.0%
x264 [info]: ref B L0: 77.4%  8.5%  4.7%  2.4%  1.9%  1.5%  1.2%  0.8%  0.7%  0.6%  0.3%
x264 [info]: ref B L1: 93.7%  6.3%
x264 [info]: kb/s:5799.52

Thx & source

За исходник спасибо:
Скриншоты: Время раздачи: 24/7 до 10 скачавших

[Цитировать]



Показать сообщения:    

Текущее время: 08-Дек 17:14

Часовой пояс: UTC + 3


Вы не можете начинать темы
Вы не можете отвечать на сообщения
Вы не можете редактировать свои сообщения
Вы не можете удалять свои сообщения
Вы не можете голосовать в опросах
Вы не можете прикреплять файлы к сообщениям
Вы не можете скачивать файлы

!ВНИМАНИЕ!
Сайт не предоставляет электронные версии произведений, а занимается лишь коллекционированием и каталогизацией ссылок, присылаемых и публикуемых на форуме нашими читателями. Если вы являетесь правообладателем какого-либо представленного материала и не желаете, чтобы ссылка на него находилась в нашем каталоге, свяжитесь с нами, и мы незамедлительно удалим ее. Файлы для обмена на трекере предоставлены пользователями сайта, и администрация не несет ответственности за их содержание. Просьба не заливать файлы, защищенные авторскими правами, а также файлы нелегального содержания!