[ Сегодня идет свободное скачивание без начисления Download ]


Статистика раздачи
Нет
 
   
 
Top  
 
 
-Площадь Колумба / Columbus Circle (2012) [1080p] BDRip- Русское название: Площадь Колумба
Оригинальное название: Columbus Circle
Год выпуска: 2012
Производство: США | Oxymoron Entertainment
Жанр: Триллер, Криминал, Детектив
Перевод: Многолосый закадровый, профессиональный+Одноголосый закадровый (С.Фурман)+Одноголосый закадровый [Rus]+Оригинал [Английский]
Язык субтитров: Русский (kato_rapture), Английский
Вид субтитров: Вшитые отключаемые-Дата мировой премьеры: 21 февраля 2012-Режиссер: Джордж Галло-Ппродюсер: Кристофер Маллик, Уильям Шерак, Джейсон Шуман-Актеры: Сэльма Блэр, Эми Смарт, Джейсон Ли, Джованни Рибизи, Кевин Поллак, Бо Бриджес, Джейсон Антун, Джерри Пенаколи, Роберт Гийом, Сэмм Ливайн-Описание фильма:
Сюжет фильма строится вокруг нелюдимой и одинокой наследницы состояния своей семьи Эбигейл, которая не покидает квартиры на Манхэттене уже два десятка лет. Она общается только с двумя людьми: через записки с консьержем своего дома и с доктором Реймондом Фонтейном, старинным другом семьи Эбигейл и поверенным во всех ее делах.
Героине приходится столкнуться со своими страхами, когда полицейский детектив начинает расследование убийства, произошедшего в соседнем доме, а незнакомая супружеская пара въезжают в квартиру, где произошло убийство.-
Продолжительность: 01:25:54
Качество видео: BDRip 1080p
Видеокодек: MPEG-4 AVC/H.264
Битрейт видео: ~18,4 Мбит/сек
Размер кадра: 1920 x 800 (2.400) at 23.976 fps
Аудиокодек: AC3 2.0/5.1 | DTS
Аудио #1: AC3 224 Кбит/сек (2ch), 48,0 КГц, 16 бит [Русский.MVO]
Аудио #2: AC3 192 Кбит/сек (2ch), 48,0 КГц, 16 бит [Русский.VO. С.Фурман]
Аудио #3: AC3 640 Кбит/сек (6ch), 48,0 КГц, 16 бит [Русский.VO]
Аудио #4: DTS 1510 Кбит/сек (6ch), 48,0 КГц, 24 бит [Английский]
Дополнительно: Сохранены оригинальные чаптеры как на Blu-ray
Релиз:

Трейлер / Ролик

[youtube]http://www.youtube.com/v/yAQe5jITKTA&fs=1[/youtube]

Знаете ли вы, что...

? Коламбус-серкл - крупная площадь в центре Нью-Йорка, расположенная на пересечении трех улиц: Пятьдесят девятой, Восьмой авеню и Бродвея. В честь 400-летия США на этой площади была установлена колонна с бюстом Колумба.

MediaInfo:

Полное имя                               : F:\Фильмы\HD-BD\Площадь Колумба  Columbus Circle 2012 BDRip 1080p\Ploshadj.kolymba.2012.BDRip.1080p.NNM-CLUB.mkv
Формат                                   : Matroska
Версия формата                           : Version 2
Размер файла                             : 12,6 Гбайт
Продолжительность                        : 1 ч. 25 м.
Общий поток                              : 21,0 Мбит/сек
Название фильма                          : Columbus Circle.2012.BDRip.1080p.NNM-CLUB.GIU
Дата кодирования                         : UTC 2013-02-12 05:52:34
Программа кодирования                    : mkvmerge v2.9.9 ('Tutu') built on Nov 25 2009 21:13:32
Библиотека кодирования                   : libebml v0.7.9 + libmatroska v0.8.1
Видео
Идентификатор                            : 1
Формат                                   : AVC
Формат/Информация                        : Advanced Video Codec
Профиль формата                          : [url=mailto:[email protected]][email protected][/url]
Параметр CABAC формата                   : Да
Параметр ReFrames формата                : 5 кадров
Идентификатор кодека                     : V_MPEG4/ISO/AVC
Продолжительность                        : 1 ч. 25 м.
Битрейт                                  : 18,4 Мбит/сек
Ширина                                   : 1920 пикселей
Высота                                   : 800 пикселей
Соотношение сторон                       : 2,40:1
Режим частоты кадров                     : Постоянный
Частота кадров                           : 23,976 кадра/сек
Цветовое пространство                    : YUV
Субдискретизация насыщенности            : 4:2:0
Битовая глубина                          : 8 бит
Тип развёртки                            : Прогрессивная
Бит/(Пиксели*Кадры)                      : 0.501
Размер потока                            : 10,8 Гбайт (86%)
Заголовок                                : Columbus Circle.2012.BDRip.1080p.NNM-CLUBB
Библиотека кодирования                   : x264 core 120 r2164 da19765
Настройки программы                      : cabac=1 / ref=5 / deblock=1:-3:-3 / analyse=0x3:0x113 / me=umh / subme=11 / psy=1 / psy_rd=1.00:0.04 / mixed_ref=1 / me_range=48 / chroma_me=1 / trellis=2 / 8x8dct=1 / cqm=0 / deadzone=21,11 / fast_pskip=0 / chroma_qp_offset=-3 / threads=36 / sliced_threads=0 / slices=4 / nr=0 / decimate=1 / interlaced=0 / bluray_compat=0 / constrained_intra=0 / bframes=6 / b_pyramid=2 / b_adapt=2 / b_bias=0 / direct=3 / weightb=1 / open_gop=0 / weightp=2 / keyint=240 / keyint_min=23 / scenecut=40 / intra_refresh=0 / rc_lookahead=120 / rc=2pass / mbtree=1 / bitrate=18432 / ratetol=1.0 / qcomp=0.60 / qpmin=0 / qpmax=69 / qpstep=4 / cplxblur=20.0 / qblur=0.5 / vbv_maxrate=50000 / vbv_bufsize=40000 / nal_hrd=none / ip_ratio=1.40 / aq=1:1.00
Язык                                     : English
Default                                  : Нет
Forced                                   : Да
Основные цвета                           : BT.709
Характеристики трансфера                 : BT.709
Коэффициенты матрицы                     : BT.709
Аудио #1
Идентификатор                            : 2
Формат                                   : AC-3
Формат/Информация                        : Audio Coding 3
Расширение режима                        : CM (complete main)
Параметр Endianness формата              : Big
Идентификатор кодека                     : A_AC3
Продолжительность                        : 1 ч. 25 м.
Вид битрейта                             : Постоянный
Битрейт                                  : 224 Кбит/сек
Каналы                                   : 2 канала
Расположение каналов                     : Front: L R
Частота                                  : 48,0 КГц
Битовая глубина                          : 16 бит
Метод сжатия                             : С потерями
Размер потока                            : 138 Мбайт (1%)
Заголовок                                : AC3.224Kbps (2ch) Russian MVO
Язык                                     : Russian
Default                                  : Нет
Forced                                   : Нет
Аудио #2
Идентификатор                            : 3
Формат                                   : AC-3
Формат/Информация                        : Audio Coding 3
Расширение режима                        : CM (complete main)
Параметр Endianness формата              : Big
Идентификатор кодека                     : A_AC3
Продолжительность                        : 1 ч. 25 м.
Вид битрейта                             : Постоянный
Битрейт                                  : 192 Кбит/сек
Каналы                                   : 2 канала
Расположение каналов                     : Front: L R
Частота                                  : 48,0 КГц
Битовая глубина                          : 16 бит
Метод сжатия                             : С потерями
Размер потока                            : 118 Мбайт (1%)
Заголовок                                : AC3.192.Kbps.VO.С.Фурман.Rus
Язык                                     : Russian
Default                                  : Нет
Forced                                   : Нет
Аудио #3
Идентификатор                            : 4
Формат                                   : AC-3
Формат/Информация                        : Audio Coding 3
Расширение режима                        : CM (complete main)
Параметр Endianness формата              : Big
Идентификатор кодека                     : A_AC3
Продолжительность                        : 1 ч. 25 м.
Вид битрейта                             : Постоянный
Битрейт                                  : 640 Кбит/сек
Каналы                                   : 6 каналов
Расположение каналов                     : Front: L C R, Side: L R, LFE
Частота                                  : 48,0 КГц
Битовая глубина                          : 16 бит
Метод сжатия                             : С потерями
Размер потока                            : 393 Мбайт (3%)
Заголовок                                : AC3.640.kbps.VO.Rus
Язык                                     : Russian
Default                                  : Нет
Forced                                   : Нет
Аудио #4
Идентификатор                            : 5
Формат                                   : DTS
Формат/Информация                        : Digital Theater Systems
Идентификатор кодека                     : A_DTS
Продолжительность                        : 1 ч. 25 м.
Вид битрейта                             : Постоянный
Битрейт                                  : 1510 Кбит/сек
Каналы                                   : 6 каналов
Расположение каналов                     : Front: L C R, Side: L R, LFE
Частота                                  : 48,0 КГц
Битовая глубина                          : 24 бит
Метод сжатия                             : С потерями
Задержка видео                           : 11 мс.
Размер потока                            : 928 Мбайт (7%)
Заголовок                                : DTS.1510.Kbps.English
Язык                                     : English
Default                                  : Нет
Forced                                   : Да
Текст #1
Идентификатор                            : 6
Формат                                   : UTF-8
Идентификатор кодека                     : S_TEXT/UTF8
Идентификатор кодека/Информация          : UTF-8 Plain Text
Заголовок                                : Russian (SRT)
Язык                                     : Russian
Default                                  : Да
Forced                                   : Нет
Текст #2
Идентификатор                            : 7
Формат                                   : UTF-8
Идентификатор кодека                     : S_TEXT/UTF8
Идентификатор кодека/Информация          : UTF-8 Plain Text
Заголовок                                : English (SRT)
Язык                                     : English
Default                                  : Нет
Forced                                   : Нет
Меню
00:00:00.000                             : en:CHAPTER01
00:04:34.649                             : en:CHAPTER02
00:07:54.683                             : en:CHAPTER03
00:13:18.923                             : en:CHAPTER04
00:15:43.568                             : en:CHAPTER05
00:19:55.653                             : en:CHAPTER06
00:26:15.199                             : en:CHAPTER07
00:28:50.062                             : en:CHAPTER08
00:33:09.696                             : en:CHAPTER09
00:36:04.788                             : en:CHAPTER10
00:40:01.065                             : en:CHAPTER11
00:43:54.423                             : en:CHAPTER12
00:46:38.921                             : en:CHAPTER13
00:52:31.065                             : en:CHAPTER14
00:56:06.530                             : en:CHAPTER15
01:02:12.646                             : en:CHAPTER16
01:06:23.563                             : en:CHAPTER17
01:12:59.041                             : en:CHAPTER18
01:17:40.155                             : en:CHAPTER19
01:21:45.776                             : en:CHAPTER20
Скриншоты:

-Время раздачи: 24/7 (до 10 скачавших)

[Цитировать]

Топик был перенесен из форума Новинки кинопроката (HD Video) в форум Зарубежное кино (HD Video)
Bootch



Показать сообщения:    

Текущее время: 04-Дек 05:01

Часовой пояс: UTC + 3


Вы не можете начинать темы
Вы не можете отвечать на сообщения
Вы не можете редактировать свои сообщения
Вы не можете удалять свои сообщения
Вы не можете голосовать в опросах
Вы не можете прикреплять файлы к сообщениям
Вы не можете скачивать файлы

!ВНИМАНИЕ!
Сайт не предоставляет электронные версии произведений, а занимается лишь коллекционированием и каталогизацией ссылок, присылаемых и публикуемых на форуме нашими читателями. Если вы являетесь правообладателем какого-либо представленного материала и не желаете, чтобы ссылка на него находилась в нашем каталоге, свяжитесь с нами, и мы незамедлительно удалим ее. Файлы для обмена на трекере предоставлены пользователями сайта, и администрация не несет ответственности за их содержание. Просьба не заливать файлы, защищенные авторскими правами, а также файлы нелегального содержания!