[ Сегодня идет свободное скачивание без начисления Download ]


Статистика раздачи
Нет
 
   
 
Top  
 
 
-Сумасшедшая езда 3Д / Drive Angry 3D (2011) [1080p] Blu-Ray 3D [3D/2D]- Русское название: Сумасшедшая езда 3Д
Оригинальное название: Drive Angry 3D
Год выпуска: 2011
Жанр: Фэнтези, Боевик, Триллер
Описание фильма:
Однажды утром в безымянном городишке появляется незнакомец, явно не вписывающийся в добропорядочную среду пуританской Америки. Он пользуется успехом у женщин, предпочитает потреблять крепкие спиртные напитки из горла и таскает с собой целый арсенал, от дробовика до весьма впечатляющего пятиствольного обреза ручной работы. Незнакомца зовут Джон Милтон, и он явно не собирается соблюдать какие-либо законы или соответствовать принятым нормам общения. Он прибыл в эту местность отнюдь не случайно. Прибыл оттуда, откуда обычно уже не возвращаются.
Милтон не понаслышке знает о существовании преисподней. Покинув Ад, Джон собирается вернуть должок убийцам его родной дочери и попытаться спасти свою внучку из лап секты поклонников Дьявола. Их предводитель, богомерзкий Джона Кинг, планирует принести ребенка в жертву, чего Милтон никак не может допустить.
Главная проблема Милтона состоит в том, что за ним из преисподней на Землю последовал еще более мрачный, хоть и не лишенный саркастического юмора, персонаж – счетовод Дьявола, в задачу которого входит немедленное возвращение беглеца обратно в котел. И если методы Милтона покажутся вам излишне жестокими и прямолинейными, то его преследователь вообще не привык слышать отрицательных ответов…
Режиссер: Патрик Люссье/Patrick Lussier
Актеры: Николас Кейдж, Эмбер Хёрд, Уильям Фихтнер, Билли Бёрк, Дэвид Морс, Тодд Фармер, Криста Кэмпбелл, Шарлотта Росс, Том Аткинс, Джек МакГи
Продолжительность: 01:44:31
Перевод: Дублированный

Формат: ISO
Видеокодек: MPEG-2
Битрейт видео: ~24805 kb/s
Размер кадра: 1920x1080
Качество видео: Blu-Ray (BD3D)
Аудио #1: Английский: 48 kHz, DTS-HD Master Audio, 3/2 (L,C,R,l,r) + LFE ch, ~4060.00 kbps avg, 24-bit (DTS Core: 5.1 / 48 kHz / 1509 kbps / 24-bit) [Оригинал]
Аудио #2: Русский: 48 kHz, AC3 Dolby Digital, 3/2 (L,C,R,l,r) + LFE ch, ~640.00 kbps avg [Профессиональный (полное дублирование)]
Аудио #3: Украинский: 48 kHz, AC3 Dolby Digital, 3/2 (L,C,R,l,r) + LFE ch, ~384.00 kbps avg [Профессиональный (полное дублирование)]
Аудио #4: Английский: 48 kHz, AC3 Dolby Digital, 2/0 (L,R) ch, ~192.00 kbps avg [Комментарии] Disc Title: DRIVE_ANGRY_3D_BLUEBIRD
Disc Size: 41 768 891 929 bytes
Protection: AACS
BD-Java: Yes
Extras: Blu-ray 3D
BDInfo: 0.5.8
Notes:
BDINFO HOME:
Cinema Squid
http://www.cinemasquid.com/blu-ray/tools/bdinfo
INCLUDES FORUMS REPORT FOR:
AVS Forum Blu-ray Audio and Video Specifications Thread
http://www.avsforum.com/avs-vb/showthread.php?t=1155731
WARNING: Report is incomplete because: Scan has not been run.
********************
PLAYLIST: 00065.MPLS
********************
Total   Video
Title                                                           Codec   Length  Movie Size      Disc Size       Bitrate Bitrate Main Audio Track                          Secondary Audio Track
-----                                                           ------  ------- --------------  --------------  ------- ------- ------------------                        ---------------------
00065.MPLS                                                      MPEG-2  3:20:12 0               41 768 891 929  0,00    0,00
DISC INFO:
Disc Title:     DRIVE_ANGRY_3D_BLUEBIRD
Disc Size:      41 768 891 929 bytes
Protection:     AACS
BD-Java:        Yes
Extras:         Blu-ray 3D
BDInfo:         0.5.8
PLAYLIST REPORT:
Name:                   00065.MPLS
Length:                 3:20:12.000 (h:m:s.ms)
Size:                   0 bytes
Total Bitrate:          0,00 Mbps
VIDEO:
Codec                   Bitrate             Description
-----                   -------             -----------
MPEG-2 Video            0 kbps              1080p / 23,976 fps / 16:9
FILES:
Name            Time In         Length          Size            Total Bitrate
----            -------         ------          ----            -------------
00065.M2TS      0:00:00.000     0:02:00.120     0               0
00065.M2TS      0:02:00.120     0:02:00.120     0               0
00065.M2TS      0:04:00.240     0:02:00.120     0               0
00065.M2TS      0:06:00.360     0:02:00.120     0               0
00065.M2TS      0:08:00.480     0:02:00.120     0               0
00065.M2TS      0:10:00.600     0:02:00.120     0               0
00065.M2TS      0:12:00.720     0:02:00.120     0               0
00065.M2TS      0:14:00.840     0:02:00.120     0               0
00065.M2TS      0:16:00.960     0:02:00.120     0               0
00065.M2TS      0:18:01.080     0:02:00.120     0               0
00065.M2TS      0:20:01.199     0:02:00.120     0               0
00065.M2TS      0:22:01.319     0:02:00.120     0               0
00065.M2TS      0:24:01.439     0:02:00.120     0               0
00065.M2TS      0:26:01.559     0:02:00.120     0               0
00065.M2TS      0:28:01.679     0:02:00.120     0               0
00065.M2TS      0:30:01.799     0:02:00.120     0               0
00065.M2TS      0:32:01.919     0:02:00.120     0               0
00065.M2TS      0:34:02.039     0:02:00.120     0               0
00065.M2TS      0:36:02.159     0:02:00.120     0               0
00065.M2TS      0:38:02.279     0:02:00.120     0               0
00065.M2TS      0:40:02.399     0:02:00.120     0               0
00065.M2TS      0:42:02.519     0:02:00.120     0               0
00065.M2TS      0:44:02.639     0:02:00.120     0               0
00065.M2TS      0:46:02.759     0:02:00.120     0               0
00065.M2TS      0:48:02.879     0:02:00.120     0               0
00065.M2TS      0:50:02.999     0:02:00.120     0               0
00065.M2TS      0:52:03.119     0:02:00.120     0               0
00065.M2TS      0:54:03.239     0:02:00.120     0               0
00065.M2TS      0:56:03.359     0:02:00.120     0               0
00065.M2TS      0:58:03.479     0:02:00.120     0               0
00065.M2TS      1:00:03.599     0:02:00.120     0               0
00065.M2TS      1:02:03.719     0:02:00.120     0               0
00065.M2TS      1:04:03.839     0:02:00.120     0               0
00065.M2TS      1:06:03.959     0:02:00.120     0               0
00065.M2TS      1:08:04.079     0:02:00.120     0               0
00065.M2TS      1:10:04.199     0:02:00.120     0               0
00065.M2TS      1:12:04.319     0:02:00.120     0               0
00065.M2TS      1:14:04.439     0:02:00.120     0               0
00065.M2TS      1:16:04.559     0:02:00.120     0               0
00065.M2TS      1:18:04.679     0:02:00.120     0               0
00065.M2TS      1:20:04.799     0:02:00.120     0               0
00065.M2TS      1:22:04.919     0:02:00.120     0               0
00065.M2TS      1:24:05.039     0:02:00.120     0               0
00065.M2TS      1:26:05.159     0:02:00.120     0               0
00065.M2TS      1:28:05.279     0:02:00.120     0               0
00065.M2TS      1:30:05.399     0:02:00.120     0               0
00065.M2TS      1:32:05.519     0:02:00.120     0               0
00065.M2TS      1:34:05.639     0:02:00.120     0               0
00065.M2TS      1:36:05.759     0:02:00.120     0               0
00065.M2TS      1:38:05.879     0:02:00.120     0               0
00065.M2TS      1:40:05.999     0:02:00.120     0               0
00065.M2TS      1:42:06.119     0:02:00.120     0               0
00065.M2TS      1:44:06.239     0:02:00.120     0               0
00065.M2TS      1:46:06.359     0:02:00.120     0               0
00065.M2TS      1:48:06.479     0:02:00.120     0               0
00065.M2TS      1:50:06.599     0:02:00.120     0               0
00065.M2TS      1:52:06.719     0:02:00.120     0               0
00065.M2TS      1:54:06.839     0:02:00.120     0               0
00065.M2TS      1:56:06.959     0:02:00.120     0               0
00065.M2TS      1:58:07.079     0:02:00.120     0               0
00065.M2TS      2:00:07.199     0:02:00.120     0               0
00065.M2TS      2:02:07.319     0:02:00.120     0               0
00065.M2TS      2:04:07.439     0:02:00.120     0               0
00065.M2TS      2:06:07.559     0:02:00.120     0               0
00065.M2TS      2:08:07.679     0:02:00.120     0               0
00065.M2TS      2:10:07.799     0:02:00.120     0               0
00065.M2TS      2:12:07.919     0:02:00.120     0               0
00065.M2TS      2:14:08.039     0:02:00.120     0               0
00065.M2TS      2:16:08.159     0:02:00.120     0               0
00065.M2TS      2:18:08.279     0:02:00.120     0               0
00065.M2TS      2:20:08.399     0:02:00.120     0               0
00065.M2TS      2:22:08.519     0:02:00.120     0               0
00065.M2TS      2:24:08.639     0:02:00.120     0               0
00065.M2TS      2:26:08.759     0:02:00.120     0               0
00065.M2TS      2:28:08.879     0:02:00.120     0               0
00065.M2TS      2:30:08.999     0:02:00.120     0               0
00065.M2TS      2:32:09.119     0:02:00.120     0               0
00065.M2TS      2:34:09.240     0:02:00.120     0               0
00065.M2TS      2:36:09.360     0:02:00.120     0               0
00065.M2TS      2:38:09.480     0:02:00.120     0               0
00065.M2TS      2:40:09.600     0:02:00.120     0               0
00065.M2TS      2:42:09.720     0:02:00.120     0               0
00065.M2TS      2:44:09.840     0:02:00.120     0               0
00065.M2TS      2:46:09.960     0:02:00.120     0               0
00065.M2TS      2:48:10.080     0:02:00.120     0               0
00065.M2TS      2:50:10.200     0:02:00.120     0               0
00065.M2TS      2:52:10.320     0:02:00.120     0               0
00065.M2TS      2:54:10.440     0:02:00.120     0               0
00065.M2TS      2:56:10.560     0:02:00.120     0               0
00065.M2TS      2:58:10.680     0:02:00.120     0               0
00065.M2TS      3:00:10.800     0:02:00.120     0               0
00065.M2TS      3:02:10.920     0:02:00.120     0               0
00065.M2TS      3:04:11.040     0:02:00.120     0               0
00065.M2TS      3:06:11.160     0:02:00.120     0               0
00065.M2TS      3:08:11.280     0:02:00.120     0               0
00065.M2TS      3:10:11.400     0:02:00.120     0               0
00065.M2TS      3:12:11.520     0:02:00.120     0               0
00065.M2TS      3:14:11.640     0:02:00.120     0               0
00065.M2TS      3:16:11.760     0:02:00.120     0               0
00065.M2TS      3:18:11.880     0:02:00.120     0               0
CHAPTERS:
Number          Time In         Length          Avg Video Rate  Max 1-Sec Rate  Max 1-Sec Time  Max 5-Sec Rate  Max 5-Sec Time  Max 10Sec Rate  Max 10Sec Time  Avg Frame Size  Max Frame Size  Max Frame Time
------          -------         ------          --------------  --------------  --------------  --------------  --------------  --------------  --------------  --------------  --------------  --------------
1               0:00:00.000     0:02:00.120     0 kbps          0 kbps          00:00:00.000    0 kbps          00:00:00.000    0 kbps          00:00:00.000    0 bytes         0 bytes         00:00:00.000
2               0:02:00.120     0:02:00.120     0 kbps          0 kbps          00:00:00.000    0 kbps          00:00:00.000    0 kbps          00:00:00.000    0 bytes         0 bytes         00:00:00.000
3               0:04:00.240     0:02:00.120     0 kbps          0 kbps          00:00:00.000    0 kbps          00:00:00.000    0 kbps          00:00:00.000    0 bytes         0 bytes         00:00:00.000
4               0:06:00.360     0:02:00.120     0 kbps          0 kbps          00:00:00.000    0 kbps          00:00:00.000    0 kbps          00:00:00.000    0 bytes         0 bytes         00:00:00.000
5               0:08:00.480     0:02:00.120     0 kbps          0 kbps          00:00:00.000    0 kbps          00:00:00.000    0 kbps          00:00:00.000    0 bytes         0 bytes         00:00:00.000
6               0:10:00.600     0:02:00.120     0 kbps          0 kbps          00:00:00.000    0 kbps          00:00:00.000    0 kbps          00:00:00.000    0 bytes         0 bytes         00:00:00.000
7               0:12:00.720     0:02:00.120     0 kbps          0 kbps          00:00:00.000    0 kbps          00:00:00.000    0 kbps          00:00:00.000    0 bytes         0 bytes         00:00:00.000
8               0:14:00.840     0:02:00.120     0 kbps          0 kbps          00:00:00.000    0 kbps          00:00:00.000    0 kbps          00:00:00.000    0 bytes         0 bytes         00:00:00.000
9               0:16:00.960     0:02:00.119     0 kbps          0 kbps          00:00:00.000    0 kbps          00:00:00.000    0 kbps          00:00:00.000    0 bytes         0 bytes         00:00:00.000
10              0:18:01.080     0:02:00.119     0 kbps          0 kbps          00:00:00.000    0 kbps          00:00:00.000    0 kbps          00:00:00.000    0 bytes         0 bytes         00:00:00.000
11              0:20:01.199     0:02:00.119     0 kbps          0 kbps          00:00:00.000    0 kbps          00:00:00.000    0 kbps          00:00:00.000    0 bytes         0 bytes         00:00:00.000
12              0:22:01.319     0:02:00.119     0 kbps          0 kbps          00:00:00.000    0 kbps          00:00:00.000    0 kbps          00:00:00.000    0 bytes         0 bytes         00:00:00.000
13              0:24:01.439     0:02:00.119     0 kbps          0 kbps          00:00:00.000    0 kbps          00:00:00.000    0 kbps          00:00:00.000    0 bytes         0 bytes         00:00:00.000
14              0:26:01.559     0:02:00.119     0 kbps          0 kbps          00:00:00.000    0 kbps          00:00:00.000    0 kbps          00:00:00.000    0 bytes         0 bytes         00:00:00.000
15              0:28:01.679     0:02:00.119     0 kbps          0 kbps          00:00:00.000    0 kbps          00:00:00.000    0 kbps          00:00:00.000    0 bytes         0 bytes         00:00:00.000
16              0:30:01.799     0:02:00.119     0 kbps          0 kbps          00:00:00.000    0 kbps          00:00:00.000    0 kbps          00:00:00.000    0 bytes         0 bytes         00:00:00.000
17              0:32:01.919     0:02:00.119     0 kbps          0 kbps          00:00:00.000    0 kbps          00:00:00.000    0 kbps          00:00:00.000    0 bytes         0 bytes         00:00:00.000
18              0:34:02.039     0:02:00.119     0 kbps          0 kbps          00:00:00.000    0 kbps          00:00:00.000    0 kbps          00:00:00.000    0 bytes         0 bytes         00:00:00.000
19              0:36:02.159     0:02:00.119     0 kbps          0 kbps          00:00:00.000    0 kbps          00:00:00.000    0 kbps          00:00:00.000    0 bytes         0 bytes         00:00:00.000
20              0:38:02.279     0:02:00.119     0 kbps          0 kbps          00:00:00.000    0 kbps          00:00:00.000    0 kbps          00:00:00.000    0 bytes         0 bytes         00:00:00.000
21              0:40:02.399     0:02:00.119     0 kbps          0 kbps          00:00:00.000    0 kbps          00:00:00.000    0 kbps          00:00:00.000    0 bytes         0 bytes         00:00:00.000
22              0:42:02.519     0:02:00.119     0 kbps          0 kbps          00:00:00.000    0 kbps          00:00:00.000    0 kbps          00:00:00.000    0 bytes         0 bytes         00:00:00.000
23              0:44:02.639     0:02:00.119     0 kbps          0 kbps          00:00:00.000    0 kbps          00:00:00.000    0 kbps          00:00:00.000    0 bytes         0 bytes         00:00:00.000
24              0:46:02.759     0:02:00.119     0 kbps          0 kbps          00:00:00.000    0 kbps          00:00:00.000    0 kbps          00:00:00.000    0 bytes         0 bytes         00:00:00.000
25              0:48:02.879     0:02:00.119     0 kbps          0 kbps          00:00:00.000    0 kbps          00:00:00.000    0 kbps          00:00:00.000    0 bytes         0 bytes         00:00:00.000
26              0:50:02.999     0:02:00.119     0 kbps          0 kbps          00:00:00.000    0 kbps          00:00:00.000    0 kbps          00:00:00.000    0 bytes         0 bytes         00:00:00.000
27              0:52:03.119     0:02:00.119     0 kbps          0 kbps          00:00:00.000    0 kbps          00:00:00.000    0 kbps          00:00:00.000    0 bytes         0 bytes         00:00:00.000
28              0:54:03.239     0:02:00.119     0 kbps          0 kbps          00:00:00.000    0 kbps          00:00:00.000    0 kbps          00:00:00.000    0 bytes         0 bytes         00:00:00.000
29              0:56:03.359     0:02:00.119     0 kbps          0 kbps          00:00:00.000    0 kbps          00:00:00.000    0 kbps          00:00:00.000    0 bytes         0 bytes         00:00:00.000
30              0:58:03.479     0:02:00.119     0 kbps          0 kbps          00:00:00.000    0 kbps          00:00:00.000    0 kbps          00:00:00.000    0 bytes         0 bytes         00:00:00.000
31              1:00:03.599     0:02:00.119     0 kbps          0 kbps          00:00:00.000    0 kbps          00:00:00.000    0 kbps          00:00:00.000    0 bytes         0 bytes         00:00:00.000
32              1:02:03.719     0:02:00.119     0 kbps          0 kbps          00:00:00.000    0 kbps          00:00:00.000    0 kbps          00:00:00.000    0 bytes         0 bytes         00:00:00.000
33              1:04:03.839     0:02:00.119     0 kbps          0 kbps          00:00:00.000    0 kbps          00:00:00.000    0 kbps          00:00:00.000    0 bytes         0 bytes         00:00:00.000
34              1:06:03.959     0:02:00.119     0 kbps          0 kbps          00:00:00.000    0 kbps          00:00:00.000    0 kbps          00:00:00.000    0 bytes         0 bytes         00:00:00.000
35              1:08:04.079     0:02:00.119     0 kbps          0 kbps          00:00:00.000    0 kbps          00:00:00.000    0 kbps          00:00:00.000    0 bytes         0 bytes         00:00:00.000
36              1:10:04.199     0:02:00.119     0 kbps          0 kbps          00:00:00.000    0 kbps          00:00:00.000    0 kbps          00:00:00.000    0 bytes         0 bytes         00:00:00.000
37              1:12:04.319     0:02:00.119     0 kbps          0 kbps          00:00:00.000    0 kbps          00:00:00.000    0 kbps          00:00:00.000    0 bytes         0 bytes         00:00:00.000
38              1:14:04.439     0:02:00.119     0 kbps          0 kbps          00:00:00.000    0 kbps          00:00:00.000    0 kbps          00:00:00.000    0 bytes         0 bytes         00:00:00.000
39              1:16:04.559     0:02:00.119     0 kbps          0 kbps          00:00:00.000    0 kbps          00:00:00.000    0 kbps          00:00:00.000    0 bytes         0 bytes         00:00:00.000
40              1:18:04.679     0:02:00.119     0 kbps          0 kbps          00:00:00.000    0 kbps          00:00:00.000    0 kbps          00:00:00.000    0 bytes         0 bytes         00:00:00.000
41              1:20:04.799     0:02:00.119     0 kbps          0 kbps          00:00:00.000    0 kbps          00:00:00.000    0 kbps          00:00:00.000    0 bytes         0 bytes         00:00:00.000
42              1:22:04.919     0:02:00.119     0 kbps          0 kbps          00:00:00.000    0 kbps          00:00:00.000    0 kbps          00:00:00.000    0 bytes         0 bytes         00:00:00.000
43              1:24:05.039     0:02:00.119     0 kbps          0 kbps          00:00:00.000    0 kbps          00:00:00.000    0 kbps          00:00:00.000    0 bytes         0 bytes         00:00:00.000
44              1:26:05.159     0:02:00.119     0 kbps          0 kbps          00:00:00.000    0 kbps          00:00:00.000    0 kbps          00:00:00.000    0 bytes         0 bytes         00:00:00.000
45              1:28:05.279     0:02:00.119     0 kbps          0 kbps          00:00:00.000    0 kbps          00:00:00.000    0 kbps          00:00:00.000    0 bytes         0 bytes         00:00:00.000
46              1:30:05.399     0:02:00.119     0 kbps          0 kbps          00:00:00.000    0 kbps          00:00:00.000    0 kbps          00:00:00.000    0 bytes         0 bytes         00:00:00.000
47              1:32:05.519     0:02:00.119     0 kbps          0 kbps          00:00:00.000    0 kbps          00:00:00.000    0 kbps          00:00:00.000    0 bytes         0 bytes         00:00:00.000
48              1:34:05.639     0:02:00.119     0 kbps          0 kbps          00:00:00.000    0 kbps          00:00:00.000    0 kbps          00:00:00.000    0 bytes         0 bytes         00:00:00.000
49              1:36:05.759     0:02:00.119     0 kbps          0 kbps          00:00:00.000    0 kbps          00:00:00.000    0 kbps          00:00:00.000    0 bytes         0 bytes         00:00:00.000
50              1:38:05.879     0:02:00.119     0 kbps          0 kbps          00:00:00.000    0 kbps          00:00:00.000    0 kbps          00:00:00.000    0 bytes         0 bytes         00:00:00.000
51              1:40:05.999     0:02:00.119     0 kbps          0 kbps          00:00:00.000    0 kbps          00:00:00.000    0 kbps          00:00:00.000    0 bytes         0 bytes         00:00:00.000
52              1:42:06.119     0:02:00.119     0 kbps          0 kbps          00:00:00.000    0 kbps          00:00:00.000    0 kbps          00:00:00.000    0 bytes         0 bytes         00:00:00.000
53              1:44:06.239     0:02:00.119     0 kbps          0 kbps          00:00:00.000    0 kbps          00:00:00.000    0 kbps          00:00:00.000    0 bytes         0 bytes         00:00:00.000
54              1:46:06.359     0:02:00.119     0 kbps          0 kbps          00:00:00.000    0 kbps          00:00:00.000    0 kbps          00:00:00.000    0 bytes         0 bytes         00:00:00.000
55              1:48:06.479     0:02:00.119     0 kbps          0 kbps          00:00:00.000    0 kbps          00:00:00.000    0 kbps          00:00:00.000    0 bytes         0 bytes         00:00:00.000
56              1:50:06.599     0:02:00.119     0 kbps          0 kbps          00:00:00.000    0 kbps          00:00:00.000    0 kbps          00:00:00.000    0 bytes         0 bytes         00:00:00.000
57              1:52:06.719     0:02:00.119     0 kbps          0 kbps          00:00:00.000    0 kbps          00:00:00.000    0 kbps          00:00:00.000    0 bytes         0 bytes         00:00:00.000
58              1:54:06.839     0:02:00.119     0 kbps          0 kbps          00:00:00.000    0 kbps          00:00:00.000    0 kbps          00:00:00.000    0 bytes         0 bytes         00:00:00.000
59              1:56:06.959     0:02:00.119     0 kbps          0 kbps          00:00:00.000    0 kbps          00:00:00.000    0 kbps          00:00:00.000    0 bytes         0 bytes         00:00:00.000
60              1:58:07.079     0:02:00.119     0 kbps          0 kbps          00:00:00.000    0 kbps          00:00:00.000    0 kbps          00:00:00.000    0 bytes         0 bytes         00:00:00.000
61              2:00:07.199     0:02:00.119     0 kbps          0 kbps          00:00:00.000    0 kbps          00:00:00.000    0 kbps          00:00:00.000    0 bytes         0 bytes         00:00:00.000
62              2:02:07.319     0:02:00.119     0 kbps          0 kbps          00:00:00.000    0 kbps          00:00:00.000    0 kbps          00:00:00.000    0 bytes         0 bytes         00:00:00.000
63              2:04:07.439     0:02:00.119     0 kbps          0 kbps          00:00:00.000    0 kbps          00:00:00.000    0 kbps          00:00:00.000    0 bytes         0 bytes         00:00:00.000
64              2:06:07.559     0:02:00.119     0 kbps          0 kbps          00:00:00.000    0 kbps          00:00:00.000    0 kbps          00:00:00.000    0 bytes         0 bytes         00:00:00.000
65              2:08:07.679     0:02:00.119     0 kbps          0 kbps          00:00:00.000    0 kbps          00:00:00.000    0 kbps          00:00:00.000    0 bytes         0 bytes         00:00:00.000
66              2:10:07.799     0:02:00.119     0 kbps          0 kbps          00:00:00.000    0 kbps          00:00:00.000    0 kbps          00:00:00.000    0 bytes         0 bytes         00:00:00.000
67              2:12:07.919     0:02:00.119     0 kbps          0 kbps          00:00:00.000    0 kbps          00:00:00.000    0 kbps          00:00:00.000    0 bytes         0 bytes         00:00:00.000
68              2:14:08.039     0:02:00.119     0 kbps          0 kbps          00:00:00.000    0 kbps          00:00:00.000    0 kbps          00:00:00.000    0 bytes         0 bytes         00:00:00.000
69              2:16:08.159     0:02:00.119     0 kbps          0 kbps          00:00:00.000    0 kbps          00:00:00.000    0 kbps          00:00:00.000    0 bytes         0 bytes         00:00:00.000
70              2:18:08.279     0:02:00.120     0 kbps          0 kbps          00:00:00.000    0 kbps          00:00:00.000    0 kbps          00:00:00.000    0 bytes         0 bytes         00:00:00.000
71              2:20:08.399     0:02:00.120     0 kbps          0 kbps          00:00:00.000    0 kbps          00:00:00.000    0 kbps          00:00:00.000    0 bytes         0 bytes         00:00:00.000
72              2:22:08.519     0:02:00.120     0 kbps          0 kbps          00:00:00.000    0 kbps          00:00:00.000    0 kbps          00:00:00.000    0 bytes         0 bytes         00:00:00.000
73              2:24:08.639     0:02:00.120     0 kbps          0 kbps          00:00:00.000    0 kbps          00:00:00.000    0 kbps          00:00:00.000    0 bytes         0 bytes         00:00:00.000
74              2:26:08.759     0:02:00.120     0 kbps          0 kbps          00:00:00.000    0 kbps          00:00:00.000    0 kbps          00:00:00.000    0 bytes         0 bytes         00:00:00.000
75              2:28:08.879     0:02:00.120     0 kbps          0 kbps          00:00:00.000    0 kbps          00:00:00.000    0 kbps          00:00:00.000    0 bytes         0 bytes         00:00:00.000
76              2:30:08.999     0:02:00.120     0 kbps          0 kbps          00:00:00.000    0 kbps          00:00:00.000    0 kbps          00:00:00.000    0 bytes         0 bytes         00:00:00.000
77              2:32:09.119     0:02:00.120     0 kbps          0 kbps          00:00:00.000    0 kbps          00:00:00.000    0 kbps          00:00:00.000    0 bytes         0 bytes         00:00:00.000
78              2:34:09.240     0:02:00.120     0 kbps          0 kbps          00:00:00.000    0 kbps          00:00:00.000    0 kbps          00:00:00.000    0 bytes         0 bytes         00:00:00.000
79              2:36:09.360     0:02:00.120     0 kbps          0 kbps          00:00:00.000    0 kbps          00:00:00.000    0 kbps          00:00:00.000    0 bytes         0 bytes         00:00:00.000
80              2:38:09.480     0:02:00.120     0 kbps          0 kbps          00:00:00.000    0 kbps          00:00:00.000    0 kbps          00:00:00.000    0 bytes         0 bytes         00:00:00.000
81              2:40:09.600     0:02:00.120     0 kbps          0 kbps          00:00:00.000    0 kbps          00:00:00.000    0 kbps          00:00:00.000    0 bytes         0 bytes         00:00:00.000
82              2:42:09.720     0:02:00.120     0 kbps          0 kbps          00:00:00.000    0 kbps          00:00:00.000    0 kbps          00:00:00.000    0 bytes         0 bytes         00:00:00.000
83              2:44:09.840     0:02:00.120     0 kbps          0 kbps          00:00:00.000    0 kbps          00:00:00.000    0 kbps          00:00:00.000    0 bytes         0 bytes         00:00:00.000
84              2:46:09.960     0:02:00.120     0 kbps          0 kbps          00:00:00.000    0 kbps          00:00:00.000    0 kbps          00:00:00.000    0 bytes         0 bytes         00:00:00.000
85              2:48:10.080     0:02:00.120     0 kbps          0 kbps          00:00:00.000    0 kbps          00:00:00.000    0 kbps          00:00:00.000    0 bytes         0 bytes         00:00:00.000
86              2:50:10.200     0:02:00.120     0 kbps          0 kbps          00:00:00.000    0 kbps          00:00:00.000    0 kbps          00:00:00.000    0 bytes         0 bytes         00:00:00.000
87              2:52:10.320     0:02:00.120     0 kbps          0 kbps          00:00:00.000    0 kbps          00:00:00.000    0 kbps          00:00:00.000    0 bytes         0 bytes         00:00:00.000
88              2:54:10.440     0:02:00.120     0 kbps          0 kbps          00:00:00.000    0 kbps          00:00:00.000    0 kbps          00:00:00.000    0 bytes         0 bytes         00:00:00.000
89              2:56:10.560     0:02:00.120     0 kbps          0 kbps          00:00:00.000    0 kbps          00:00:00.000    0 kbps          00:00:00.000    0 bytes         0 bytes         00:00:00.000
90              2:58:10.680     0:02:00.120     0 kbps          0 kbps          00:00:00.000    0 kbps          00:00:00.000    0 kbps          00:00:00.000    0 bytes         0 bytes         00:00:00.000
91              3:00:10.800     0:02:00.120     0 kbps          0 kbps          00:00:00.000    0 kbps          00:00:00.000    0 kbps          00:00:00.000    0 bytes         0 bytes         00:00:00.000
92              3:02:10.920     0:02:00.120     0 kbps          0 kbps          00:00:00.000    0 kbps          00:00:00.000    0 kbps          00:00:00.000    0 bytes         0 bytes         00:00:00.000
93              3:04:11.040     0:02:00.120     0 kbps          0 kbps          00:00:00.000    0 kbps          00:00:00.000    0 kbps          00:00:00.000    0 bytes         0 bytes         00:00:00.000
94              3:06:11.160     0:02:00.120     0 kbps          0 kbps          00:00:00.000    0 kbps          00:00:00.000    0 kbps          00:00:00.000    0 bytes         0 bytes         00:00:00.000
95              3:08:11.280     0:02:00.120     0 kbps          0 kbps          00:00:00.000    0 kbps          00:00:00.000    0 kbps          00:00:00.000    0 bytes         0 bytes         00:00:00.000
96              3:10:11.400     0:02:00.120     0 kbps          0 kbps          00:00:00.000    0 kbps          00:00:00.000    0 kbps          00:00:00.000    0 bytes         0 bytes         00:00:00.000
97              3:12:11.520     0:02:00.120     0 kbps          0 kbps          00:00:00.000    0 kbps          00:00:00.000    0 kbps          00:00:00.000    0 bytes         0 bytes         00:00:00.000
98              3:14:11.640     0:02:00.120     0 kbps          0 kbps          00:00:00.000    0 kbps          00:00:00.000    0 kbps          00:00:00.000    0 bytes         0 bytes         00:00:00.000
99              3:16:11.760     0:02:00.120     0 kbps          0 kbps          00:00:00.000    0 kbps          00:00:00.000    0 kbps          00:00:00.000    0 bytes         0 bytes         00:00:00.000
100             3:18:11.880     0:02:00.120     0 kbps          0 kbps          00:00:00.000    0 kbps          00:00:00.000    0 kbps          00:00:00.000    0 bytes         0 bytes         00:00:00.000
********************
PLAYLIST: 00118.MPLS
********************
Total   Video
Title                                                           Codec   Length  Movie Size      Disc Size       Bitrate Bitrate Main Audio Track                          Secondary Audio Track
-----                                                           ------  ------- --------------  --------------  ------- ------- ------------------                        ---------------------
00118.MPLS                                                      AVC     1:44:31 0               41 768 891 929  0,00    0,00    DTS-HD Master 5.1 (48kHz/24-bit)
DISC INFO:
Disc Title:     DRIVE_ANGRY_3D_BLUEBIRD
Disc Size:      41 768 891 929 bytes
Protection:     AACS
BD-Java:        Yes
Extras:         Blu-ray 3D
BDInfo:         0.5.8
PLAYLIST REPORT:
Name:                   00118.MPLS
Length:                 1:44:31.265 (h:m:s.ms)
Size:                   0 bytes
Total Bitrate:          0,00 Mbps
(*) Indicates included stream hidden by this playlist.
VIDEO:
Codec                   Bitrate             Description
-----                   -------             -----------
MPEG-4 AVC Video        0 kbps              1080p / 23,976 fps / 16:9 / High Profile 4.1
MPEG-4 MVC Video        0 kbps
AUDIO:
Codec                           Language        Bitrate         Description
-----                           --------        -------         -----------
DTS-HD Master Audio             English         0 kbps          5.1 / 48 kHz / 24-bit (DTS Core: 5.1 / 48 kHz / 1509 kbps / 24-bit)
Dolby Digital Audio             Russian         640 kbps        5.1 / 48 kHz / 640 kbps
Dolby Digital Audio             Ukrainian       384 kbps        5.1 / 48 kHz / 384 kbps / DN -4dB
Dolby Digital Audio             English         192 kbps        2.0 / 48 kHz / 192 kbps / DN -4dB / Dolby Surround
SUBTITLES:
Codec                           Language        Bitrate         Description
-----                           --------        -------         -----------
Presentation Graphics           English         0,000 kbps
* Presentation Graphics         English         0,000 kbps
Presentation Graphics           Russian         0,000 kbps
* Presentation Graphics         Russian         0,000 kbps
* Presentation Graphics         Russian         0,000 kbps
Presentation Graphics           Russian         0,000 kbps
* Presentation Graphics         Russian         0,000 kbps
FILES:
Name            Time In         Length          Size            Total Bitrate
----            -------         ------          ----            -------------
00152.SSIF      0:00:00.000     1:44:31.265     0               0
CHAPTERS:
Number          Time In         Length          Avg Video Rate  Max 1-Sec Rate  Max 1-Sec Time  Max 5-Sec Rate  Max 5-Sec Time  Max 10Sec Rate  Max 10Sec Time  Avg Frame Size  Max Frame Size  Max Frame Time
------          -------         ------          --------------  --------------  --------------  --------------  --------------  --------------  --------------  --------------  --------------  --------------
1               0:00:00.000     0:08:27.632     0 kbps          0 kbps          00:00:00.000    0 kbps          00:00:00.000    0 kbps          00:00:00.000    0 bytes         0 bytes         00:00:00.000
2               0:08:27.632     0:04:05.954     0 kbps          0 kbps          00:00:00.000    0 kbps          00:00:00.000    0 kbps          00:00:00.000    0 bytes         0 bytes         00:00:00.000
3               0:12:33.586     0:03:58.947     0 kbps          0 kbps          00:00:00.000    0 kbps          00:00:00.000    0 kbps          00:00:00.000    0 bytes         0 bytes         00:00:00.000
4               0:16:32.533     0:03:11.149     0 kbps          0 kbps          00:00:00.000    0 kbps          00:00:00.000    0 kbps          00:00:00.000    0 bytes         0 bytes         00:00:00.000
5               0:19:43.682     0:06:44.320     0 kbps          0 kbps          00:00:00.000    0 kbps          00:00:00.000    0 kbps          00:00:00.000    0 bytes         0 bytes         00:00:00.000
6               0:26:28.003     0:03:52.106     0 kbps          0 kbps          00:00:00.000    0 kbps          00:00:00.000    0 kbps          00:00:00.000    0 bytes         0 bytes         00:00:00.000
7               0:30:20.109     0:05:18.359     0 kbps          0 kbps          00:00:00.000    0 kbps          00:00:00.000    0 kbps          00:00:00.000    0 bytes         0 bytes         00:00:00.000
8               0:35:38.469     0:06:33.643     0 kbps          0 kbps          00:00:00.000    0 kbps          00:00:00.000    0 kbps          00:00:00.000    0 bytes         0 bytes         00:00:00.000
9               0:42:12.112     0:08:36.098     0 kbps          0 kbps          00:00:00.000    0 kbps          00:00:00.000    0 kbps          00:00:00.000    0 bytes         0 bytes         00:00:00.000
10              0:50:48.211     0:03:21.367     0 kbps          0 kbps          00:00:00.000    0 kbps          00:00:00.000    0 kbps          00:00:00.000    0 bytes         0 bytes         00:00:00.000
11              0:54:09.579     0:04:05.203     0 kbps          0 kbps          00:00:00.000    0 kbps          00:00:00.000    0 kbps          00:00:00.000    0 bytes         0 bytes         00:00:00.000
12              0:58:14.782     0:03:56.653     0 kbps          0 kbps          00:00:00.000    0 kbps          00:00:00.000    0 kbps          00:00:00.000    0 bytes         0 bytes         00:00:00.000
13              1:02:11.436     0:08:37.266     0 kbps          0 kbps          00:00:00.000    0 kbps          00:00:00.000    0 kbps          00:00:00.000    0 bytes         0 bytes         00:00:00.000
14              1:10:48.702     0:05:16.774     0 kbps          0 kbps          00:00:00.000    0 kbps          00:00:00.000    0 kbps          00:00:00.000    0 bytes         0 bytes         00:00:00.000
15              1:16:05.477     0:05:43.342     0 kbps          0 kbps          00:00:00.000    0 kbps          00:00:00.000    0 kbps          00:00:00.000    0 bytes         0 bytes         00:00:00.000
16              1:21:48.820     0:05:44.385     0 kbps          0 kbps          00:00:00.000    0 kbps          00:00:00.000    0 kbps          00:00:00.000    0 bytes         0 bytes         00:00:00.000
17              1:27:33.206     0:06:24.425     0 kbps          0 kbps          00:00:00.000    0 kbps          00:00:00.000    0 kbps          00:00:00.000    0 bytes         0 bytes         00:00:00.000
18              1:33:57.631     0:10:33.633     0 kbps          0 kbps          00:00:00.000    0 kbps          00:00:00.000    0 kbps          00:00:00.000    0 bytes         0 bytes         00:00:00.000
********************
PLAYLIST: 00126.MPLS
********************
Total   Video
Title                                                           Codec   Length  Movie Size      Disc Size       Bitrate Bitrate Main Audio Track                          Secondary Audio Track
-----                                                           ------  ------- --------------  --------------  ------- ------- ------------------                        ---------------------
00126.MPLS                                                      AVC     1:44:31 0               41 768 891 929  0,00    0,00    DTS-HD Master 5.1 (48kHz/24-bit)
DISC INFO:
Disc Title:     DRIVE_ANGRY_3D_BLUEBIRD
Disc Size:      41 768 891 929 bytes
Protection:     AACS
BD-Java:        Yes
Extras:         Blu-ray 3D
BDInfo:         0.5.8
PLAYLIST REPORT:
Name:                   00126.MPLS
Length:                 1:44:31.265 (h:m:s.ms)
Size:                   0 bytes
Total Bitrate:          0,00 Mbps
(*) Indicates included stream hidden by this playlist.
VIDEO:
Codec                   Bitrate             Description
-----                   -------             -----------
MPEG-4 AVC Video        0 kbps              1080p / 23,976 fps / 16:9 / High Profile 4.1
MPEG-4 MVC Video        0 kbps
AUDIO:
Codec                           Language        Bitrate         Description
-----                           --------        -------         -----------
DTS-HD Master Audio             English         0 kbps          5.1 / 48 kHz / 24-bit (DTS Core: 5.1 / 48 kHz / 1509 kbps / 24-bit)
Dolby Digital Audio             Russian         640 kbps        5.1 / 48 kHz / 640 kbps
Dolby Digital Audio             Ukrainian       384 kbps        5.1 / 48 kHz / 384 kbps / DN -4dB
Dolby Digital Audio             English         192 kbps        2.0 / 48 kHz / 192 kbps / DN -4dB / Dolby Surround
SUBTITLES:
Codec                           Language        Bitrate         Description
-----                           --------        -------         -----------
* Presentation Graphics         English         0,000 kbps
Presentation Graphics           English         0,000 kbps
* Presentation Graphics         Russian         0,000 kbps
Presentation Graphics           Russian         0,000 kbps
Presentation Graphics           Russian         0,000 kbps
* Presentation Graphics         Russian         0,000 kbps
Presentation Graphics           Russian         0,000 kbps
FILES:
Name            Time In         Length          Size            Total Bitrate
----            -------         ------          ----            -------------
00152.SSIF      0:00:00.000     1:44:31.265     0               0
CHAPTERS:
Number          Time In         Length          Avg Video Rate  Max 1-Sec Rate  Max 1-Sec Time  Max 5-Sec Rate  Max 5-Sec Time  Max 10Sec Rate  Max 10Sec Time  Avg Frame Size  Max Frame Size  Max Frame Time
------          -------         ------          --------------  --------------  --------------  --------------  --------------  --------------  --------------  --------------  --------------  --------------
1               0:00:00.000     0:08:27.632     0 kbps          0 kbps          00:00:00.000    0 kbps          00:00:00.000    0 kbps          00:00:00.000    0 bytes         0 bytes         00:00:00.000
2               0:08:27.632     0:04:05.954     0 kbps          0 kbps          00:00:00.000    0 kbps          00:00:00.000    0 kbps          00:00:00.000    0 bytes         0 bytes         00:00:00.000
3               0:12:33.586     0:03:58.947     0 kbps          0 kbps          00:00:00.000    0 kbps          00:00:00.000    0 kbps          00:00:00.000    0 bytes         0 bytes         00:00:00.000
4               0:16:32.533     0:03:11.149     0 kbps          0 kbps          00:00:00.000    0 kbps          00:00:00.000    0 kbps          00:00:00.000    0 bytes         0 bytes         00:00:00.000
5               0:19:43.682     0:06:44.320     0 kbps          0 kbps          00:00:00.000    0 kbps          00:00:00.000    0 kbps          00:00:00.000    0 bytes         0 bytes         00:00:00.000
6               0:26:28.003     0:03:52.106     0 kbps          0 kbps          00:00:00.000    0 kbps          00:00:00.000    0 kbps          00:00:00.000    0 bytes         0 bytes         00:00:00.000
7               0:30:20.109     0:05:18.359     0 kbps          0 kbps          00:00:00.000    0 kbps          00:00:00.000    0 kbps          00:00:00.000    0 bytes         0 bytes         00:00:00.000
8               0:35:38.469     0:06:33.643     0 kbps          0 kbps          00:00:00.000    0 kbps          00:00:00.000    0 kbps          00:00:00.000    0 bytes         0 bytes         00:00:00.000
9               0:42:12.112     0:08:36.098     0 kbps          0 kbps          00:00:00.000    0 kbps          00:00:00.000    0 kbps          00:00:00.000    0 bytes         0 bytes         00:00:00.000
10              0:50:48.211     0:03:21.367     0 kbps          0 kbps          00:00:00.000    0 kbps          00:00:00.000    0 kbps          00:00:00.000    0 bytes         0 bytes         00:00:00.000
11              0:54:09.579     0:04:05.203     0 kbps          0 kbps          00:00:00.000    0 kbps          00:00:00.000    0 kbps          00:00:00.000    0 bytes         0 bytes         00:00:00.000
12              0:58:14.782     0:03:56.653     0 kbps          0 kbps          00:00:00.000    0 kbps          00:00:00.000    0 kbps          00:00:00.000    0 bytes         0 bytes         00:00:00.000
13              1:02:11.436     0:08:37.266     0 kbps          0 kbps          00:00:00.000    0 kbps          00:00:00.000    0 kbps          00:00:00.000    0 bytes         0 bytes         00:00:00.000
14              1:10:48.702     0:05:16.774     0 kbps          0 kbps          00:00:00.000    0 kbps          00:00:00.000    0 kbps          00:00:00.000    0 bytes         0 bytes         00:00:00.000
15              1:16:05.477     0:05:43.342     0 kbps          0 kbps          00:00:00.000    0 kbps          00:00:00.000    0 kbps          00:00:00.000    0 bytes         0 bytes         00:00:00.000
16              1:21:48.820     0:05:44.385     0 kbps          0 kbps          00:00:00.000    0 kbps          00:00:00.000    0 kbps          00:00:00.000    0 bytes         0 bytes         00:00:00.000
17              1:27:33.206     0:06:24.425     0 kbps          0 kbps          00:00:00.000    0 kbps          00:00:00.000    0 kbps          00:00:00.000    0 bytes         0 bytes         00:00:00.000
18              1:33:57.631     0:10:33.633     0 kbps          0 kbps          00:00:00.000    0 kbps          00:00:00.000    0 kbps          00:00:00.000    0 bytes         0 bytes         00:00:00.000
********************
PLAYLIST: 00000.MPLS
********************
Total   Video
Title                                                           Codec   Length  Movie Size      Disc Size       Bitrate Bitrate Main Audio Track                          Secondary Audio Track
-----                                                           ------  ------- --------------  --------------  ------- ------- ------------------                        ---------------------
00000.MPLS                                                      AVC     0:28:55 0               41 768 891 929  0,00    0,00    DD AC3 5.1 448Kbps
DISC INFO:
Disc Title:     DRIVE_ANGRY_3D_BLUEBIRD
Disc Size:      41 768 891 929 bytes
Protection:     AACS
BD-Java:        Yes
Extras:         Blu-ray 3D
BDInfo:         0.5.8
PLAYLIST REPORT:
Name:                   00000.MPLS
Length:                 0:28:55.859 (h:m:s.ms)
Size:                   0 bytes
Total Bitrate:          0,00 Mbps
VIDEO:
Codec                   Bitrate             Description
-----                   -------             -----------
MPEG-4 AVC Video        0 kbps              1080p / 23,976 fps / 16:9 / High Profile 4.0
AUDIO:
Codec                           Language        Bitrate         Description
-----                           --------        -------         -----------
Dolby Digital Audio             English         448 kbps        5.1 / 48 kHz / 448 kbps / DN -4dB
SUBTITLES:
Codec                           Language        Bitrate         Description
-----                           --------        -------         -----------
Presentation Graphics           Russian         0,000 kbps
FILES:
Name            Time In         Length          Size            Total Bitrate
----            -------         ------          ----            -------------
00002.M2TS      0:00:00.000     0:01:12.113     0               0
00003.M2TS      0:01:12.113     0:09:25.606     0               0
00001.M2TS      0:10:37.720     0:18:18.138     0               0
CHAPTERS:
Number          Time In         Length          Avg Video Rate  Max 1-Sec Rate  Max 1-Sec Time  Max 5-Sec Rate  Max 5-Sec Time  Max 10Sec Rate  Max 10Sec Time  Avg Frame Size  Max Frame Size  Max Frame Time
------          -------         ------          --------------  --------------  --------------  --------------  --------------  --------------  --------------  --------------  --------------  --------------
1               0:00:00.000     0:01:12.113     0 kbps          0 kbps          00:00:00.000    0 kbps          00:00:00.000    0 kbps          00:00:00.000    0 bytes         0 bytes         00:00:00.000
2               0:01:12.113     0:09:25.606     0 kbps          0 kbps          00:00:00.000    0 kbps          00:00:00.000    0 kbps          00:00:00.000    0 bytes         0 bytes         00:00:00.000
3               0:10:37.720     0:18:18.138     0 kbps          0 kbps          00:00:00.000    0 kbps          00:00:00.000    0 kbps          00:00:00.000    0 bytes         0 bytes         00:00:00.000
********************
PLAYLIST: 00097.MPLS
********************
Total   Video
Title                                                           Codec   Length  Movie Size      Disc Size       Bitrate Bitrate Main Audio Track                          Secondary Audio Track
-----                                                           ------  ------- --------------  --------------  ------- ------- ------------------                        ---------------------
00097.MPLS                                                      AVC     0:01:25 0               41 768 891 929  0,00    0,00    DD AC3 5.1 224Kbps                        DD AC3 5.1 224Kbps
DISC INFO:
Disc Title:     DRIVE_ANGRY_3D_BLUEBIRD
Disc Size:      41 768 891 929 bytes
Protection:     AACS
BD-Java:        Yes
Extras:         Blu-ray 3D
BDInfo:         0.5.8
PLAYLIST REPORT:
Name:                   00097.MPLS
Length:                 0:01:25.043 (h:m:s.ms)
Size:                   0 bytes
Total Bitrate:          0,00 Mbps
VIDEO:
Codec                   Bitrate             Description
-----                   -------             -----------
MPEG-4 AVC Video        0 kbps              1080p / 23,976 fps / 16:9 / High Profile 4.1
MPEG-4 MVC Video        0 kbps
AUDIO:
Codec                           Language        Bitrate         Description
-----                           --------        -------         -----------
Dolby Digital Audio             English         224 kbps        5.1 / 48 kHz / 224 kbps / DN -4dB
Dolby Digital Audio             English         224 kbps        5.1 / 48 kHz / 224 kbps / DN -4dB
SUBTITLES:
Codec                           Language        Bitrate         Description
-----                           --------        -------         -----------
Presentation Graphics           English         0,000 kbps
Presentation Graphics           English         0,000 kbps
FILES:
Name            Time In         Length          Size            Total Bitrate
----            -------         ------          ----            -------------
00098.SSIF      0:00:00.000     0:00:45.211     0               0
00099.SSIF      0:00:45.211     0:00:39.831     0               0
CHAPTERS:
Number          Time In         Length          Avg Video Rate  Max 1-Sec Rate  Max 1-Sec Time  Max 5-Sec Rate  Max 5-Sec Time  Max 10Sec Rate  Max 10Sec Time  Avg Frame Size  Max Frame Size  Max Frame Time
------          -------         ------          --------------  --------------  --------------  --------------  --------------  --------------  --------------  --------------  --------------  --------------
1               0:00:00.000     0:01:25.043     0 kbps          0 kbps          00:00:00.000    0 kbps          00:00:00.000    0 kbps          00:00:00.000    0 bytes         0 bytes         00:00:00.000
********************
PLAYLIST: 00098.MPLS
********************
Total   Video
Title                                                           Codec   Length  Movie Size      Disc Size       Bitrate Bitrate Main Audio Track                          Secondary Audio Track
-----                                                           ------  ------- --------------  --------------  ------- ------- ------------------                        ---------------------
00098.MPLS                                                      AVC     0:00:45 0               41 768 891 929  0,00    0,00    DD AC3 5.1 224Kbps                        DD AC3 5.1 224Kbps
DISC INFO:
Disc Title:     DRIVE_ANGRY_3D_BLUEBIRD
Disc Size:      41 768 891 929 bytes
Protection:     AACS
BD-Java:        Yes
Extras:         Blu-ray 3D
BDInfo:         0.5.8
PLAYLIST REPORT:
Name:                   00098.MPLS
Length:                 0:00:45.211 (h:m:s.ms)
Size:                   0 bytes
Total Bitrate:          0,00 Mbps
(*) Indicates included stream hidden by this playlist.
VIDEO:
Codec                   Bitrate             Description
-----                   -------             -----------
MPEG-4 AVC Video        0 kbps              1080p / 23,976 fps / 16:9 / High Profile 4.1
MPEG-4 MVC Video        0 kbps
AUDIO:
Codec                           Language        Bitrate         Description
-----                           --------        -------         -----------
Dolby Digital Audio             English         224 kbps        5.1 / 48 kHz / 224 kbps / DN -4dB
Dolby Digital Audio             English         224 kbps        5.1 / 48 kHz / 224 kbps / DN -4dB
SUBTITLES:
Codec                           Language        Bitrate         Description
-----                           --------        -------         -----------
* Presentation Graphics         English         0,000 kbps
* Presentation Graphics         English         0,000 kbps
FILES:
Name            Time In         Length          Size            Total Bitrate
----            -------         ------          ----            -------------
00098.SSIF      0:00:00.000     0:00:45.211     0               0
CHAPTERS:
Number          Time In         Length          Avg Video Rate  Max 1-Sec Rate  Max 1-Sec Time  Max 5-Sec Rate  Max 5-Sec Time  Max 10Sec Rate  Max 10Sec Time  Avg Frame Size  Max Frame Size  Max Frame Time
------          -------         ------          --------------  --------------  --------------  --------------  --------------  --------------  --------------  --------------  --------------  --------------
1               0:00:00.000     0:00:45.211     0 kbps          0 kbps          00:00:00.000    0 kbps          00:00:00.000    0 kbps          00:00:00.000    0 bytes         0 bytes         00:00:00.000
********************
PLAYLIST: 00099.MPLS
********************
Total   Video
Title                                                           Codec   Length  Movie Size      Disc Size       Bitrate Bitrate Main Audio Track                          Secondary Audio Track
-----                                                           ------  ------- --------------  --------------  ------- ------- ------------------                        ---------------------
00099.MPLS                                                      AVC     0:00:39 0               41 768 891 929  0,00    0,00    DD AC3 5.1 224Kbps                        DD AC3 5.1 224Kbps
DISC INFO:
Disc Title:     DRIVE_ANGRY_3D_BLUEBIRD
Disc Size:      41 768 891 929 bytes
Protection:     AACS
BD-Java:        Yes
Extras:         Blu-ray 3D
BDInfo:         0.5.8
PLAYLIST REPORT:
Name:                   00099.MPLS
Length:                 0:00:39.831 (h:m:s.ms)
Size:                   0 bytes
Total Bitrate:          0,00 Mbps
(*) Indicates included stream hidden by this playlist.
VIDEO:
Codec                   Bitrate             Description
-----                   -------             -----------
MPEG-4 AVC Video        0 kbps              1080p / 23,976 fps / 16:9 / High Profile 4.1
MPEG-4 MVC Video        0 kbps
AUDIO:
Codec                           Language        Bitrate         Description
-----                           --------        -------         -----------
Dolby Digital Audio             English         224 kbps        5.1 / 48 kHz / 224 kbps / DN -4dB
Dolby Digital Audio             English         224 kbps        5.1 / 48 kHz / 224 kbps / DN -4dB
SUBTITLES:
Codec                           Language        Bitrate         Description
-----                           --------        -------         -----------
* Presentation Graphics         English         0,000 kbps
* Presentation Graphics         English         0,000 kbps
FILES:
Name            Time In         Length          Size            Total Bitrate
----            -------         ------          ----            -------------
00099.SSIF      0:00:00.000     0:00:39.831     0               0
CHAPTERS:
Number          Time In         Length          Avg Video Rate  Max 1-Sec Rate  Max 1-Sec Time  Max 5-Sec Rate  Max 5-Sec Time  Max 10Sec Rate  Max 10Sec Time  Avg Frame Size  Max Frame Size  Max Frame Time
------          -------         ------          --------------  --------------  --------------  --------------  --------------  --------------  --------------  --------------  --------------  --------------
1               0:00:00.000     0:00:39.831     0 kbps          0 kbps          00:00:00.000    0 kbps          00:00:00.000    0 kbps          00:00:00.000    0 bytes         0 bytes         00:00:00.000
********************
PLAYLIST: 00120.MPLS
********************
Total   Video
Title                                                           Codec   Length  Movie Size      Disc Size       Bitrate Bitrate Main Audio Track                          Secondary Audio Track
-----                                                           ------  ------- --------------  --------------  ------- ------- ------------------                        ---------------------
00120.MPLS                                                      AVC     0:00:15 0               41 768 891 929  0,00    0,00
DISC INFO:
Disc Title:     DRIVE_ANGRY_3D_BLUEBIRD
Disc Size:      41 768 891 929 bytes
Protection:     AACS
BD-Java:        Yes
Extras:         Blu-ray 3D
BDInfo:         0.5.8
PLAYLIST REPORT:
Name:                   00120.MPLS
Length:                 0:00:15.432 (h:m:s.ms)
Size:                   0 bytes
Total Bitrate:          0,00 Mbps
VIDEO:
Codec                   Bitrate             Description
-----                   -------             -----------
MPEG-4 AVC Video        0 kbps              1080p / 23,976 fps / 16:9 / High Profile 4.1
MPEG-4 MVC Video        0 kbps
FILES:
Name            Time In         Length          Size            Total Bitrate
----            -------         ------          ----            -------------
00137.SSIF      0:00:00.000     0:00:15.432     0               0
CHAPTERS:
Number          Time In         Length          Avg Video Rate  Max 1-Sec Rate  Max 1-Sec Time  Max 5-Sec Rate  Max 5-Sec Time  Max 10Sec Rate  Max 10Sec Time  Avg Frame Size  Max Frame Size  Max Frame Time
------          -------         ------          --------------  --------------  --------------  --------------  --------------  --------------  --------------  --------------  --------------  --------------
1               0:00:00.000     0:00:05.004     0 kbps          0 kbps          00:00:00.000    0 kbps          00:00:00.000    0 kbps          00:00:00.000    0 bytes         0 bytes         00:00:00.000
2               0:00:05.004     0:00:05.004     0 kbps          0 kbps          00:00:00.000    0 kbps          00:00:00.000    0 kbps          00:00:00.000    0 bytes         0 bytes         00:00:00.000
3               0:00:10.009     0:00:05.422     0 kbps          0 kbps          00:00:00.000    0 kbps          00:00:00.000    0 kbps          00:00:00.000    0 bytes         0 bytes         00:00:00.000
********************
PLAYLIST: 00056.MPLS
********************
Total   Video
Title                                                           Codec   Length  Movie Size      Disc Size       Bitrate Bitrate Main Audio Track                          Secondary Audio Track
-----                                                           ------  ------- --------------  --------------  ------- ------- ------------------                        ---------------------
00056.MPLS                                                      AVC     0:00:15 0               41 768 891 929  0,00    0,00    DD AC3 5.1 640Kbps
DISC INFO:
Disc Title:     DRIVE_ANGRY_3D_BLUEBIRD
Disc Size:      41 768 891 929 bytes
Protection:     AACS
BD-Java:        Yes
Extras:         Blu-ray 3D
BDInfo:         0.5.8
PLAYLIST REPORT:
Name:                   00056.MPLS
Length:                 0:00:15.056 (h:m:s.ms)
Size:                   0 bytes
Total Bitrate:          0,00 Mbps
VIDEO:
Codec                   Bitrate             Description
-----                   -------             -----------
MPEG-4 AVC Video        0 kbps              1080p / 23,976 fps / 16:9 / High Profile 4.1
AUDIO:
Codec                           Language        Bitrate         Description
-----                           --------        -------         -----------
Dolby Digital Audio             English         640 kbps        5.1 / 48 kHz / 640 kbps
FILES:
Name            Time In         Length          Size            Total Bitrate
----            -------         ------          ----            -------------
00056.M2TS      0:00:00.000     0:00:15.056     0               0
CHAPTERS:
Number          Time In         Length          Avg Video Rate  Max 1-Sec Rate  Max 1-Sec Time  Max 5-Sec Rate  Max 5-Sec Time  Max 10Sec Rate  Max 10Sec Time  Avg Frame Size  Max Frame Size  Max Frame Time
------          -------         ------          --------------  --------------  --------------  --------------  --------------  --------------  --------------  --------------  --------------  --------------
1               0:00:00.000     0:00:15.056     0 kbps          0 kbps          00:00:00.000    0 kbps          00:00:00.000    0 kbps          00:00:00.000    0 bytes         0 bytes         00:00:00.000
********************
PLAYLIST: 00050.MPLS
********************
[code]
Total Video
Title Codec Length Movie Size Disc Size Bitrate Bitrate Main Audio Track Secondary Audio Track
----- ------ ------- -------------- -------------- ------- ------- ------------------ ---------------------
00050.MPLS AVC 0:00:13 0 41 768 891

[Цитировать]



Показать сообщения:    

Текущее время: 10-Дек 08:04

Часовой пояс: UTC + 3


Вы не можете начинать темы
Вы не можете отвечать на сообщения
Вы не можете редактировать свои сообщения
Вы не можете удалять свои сообщения
Вы не можете голосовать в опросах
Вы не можете прикреплять файлы к сообщениям
Вы не можете скачивать файлы

!ВНИМАНИЕ!
Сайт не предоставляет электронные версии произведений, а занимается лишь коллекционированием и каталогизацией ссылок, присылаемых и публикуемых на форуме нашими читателями. Если вы являетесь правообладателем какого-либо представленного материала и не желаете, чтобы ссылка на него находилась в нашем каталоге, свяжитесь с нами, и мы незамедлительно удалим ее. Файлы для обмена на трекере предоставлены пользователями сайта, и администрация не несет ответственности за их содержание. Просьба не заливать файлы, защищенные авторскими правами, а также файлы нелегального содержания!