[ Сегодня идет свободное скачивание без начисления Download ]


Статистика раздачи
Нет
 
   
 
Top  
 
 
-Мадагаскар: Трилогия / Madagascar: Trilogy (2005-2012) [1080p] BDRemux-- -

Мадагаскар / Madagascar (2005) [1080p] BDRemux

Мадагаскар / Madagascar (2005) [1080p] BDRemux-«Они не были рождены в дикой местности... Их перевезли туда...»- Русское название: Мадагаскар
Оригинальное название: Madagascar
Год выпуска: 2005
Жанр: мультфильм, комедия, приключения, семейный
Режиссер: Эрик Дарнелл, Том МакГрат
В главных ролях: Бен Стиллер, Крис Рок, Дэвид Швиммер, Джада Пинкетт Смит, Саша Барон Коэн, Седрик «Развлекатель», Энди Рихтер, Том Макграт, Кристофер Найтс, Крис Миллер
Роли дублировали: Константин Хабенский, Оскар Кучера, Александр Цекало, Маша Малиновская, Александр Машанов, Федор Машанов, Анатолий Дубанов, Светлана Кузнецова
Опиcание фильма:
Четверо изнеженных животных из Центрального зоопарка в Нью-Йорке — лев Алекс, зебра Марти, жираф Мелман и гиппопотамиха Глория — решаются на побег. Оказавшись после кораблекрушения на экзотическом острове Мадагаскар, населенном лемурами и поедающими их фоссами, путешественники с ужасом понимают, что с городскими привычками им придется распрощаться.
Здесь нет людей, любимых клеток, вкусной кормежки. Начинается шоу «Последний герой» только с животными — нашим друзьям нужно выжить в непривычной среде обитания, где на каждом шагу подстерегает опасность…
-Продолжительность: 01:25:58
Качество видео: BDRemux
Контейнер: MKV
Перевод: дублированный, многоголосый закадровый, одноголосый закадровый
Субтитры: русские(полные, форсированные), английские-
Дата мировой премьеры: 25 мая 2005
Дата российской премьеры: 2 июня 2005, «UIP»
Релиз на DVD: 30 ноября 2010, «Юниверсал Пикчерс Рус»
Релиз на Blu-Ray: 24 марта 2009, «Юниверсал Пикчерс Рус»- 
Видеокодек: MPEG-4 AVC/H.264
Аудиокодек: AC-3, TrueHD
Видео: 1920x1080, 32490 kbps(1080p, 23.976 fps, 16:9, High @L4.1)
Аудио1: AC-3 5.1, 640 Kbps, 48.0 KГц - дублированный
Аудио2: AC-3 5.1, 448 Kbps, 48.0 KГц - многоголосый закадровый (Tycoon)
Аудио3: AC-3 5.1, 448 Kbps, 48.0 KГц - одноголосый закадровый (Гаврилов А. Ю.)
Аудио4: TrueHD 5.1, 5049 Kbps, 48.0 KГц - English
Аудио5: AC-3 2.0, 224 Kbps, 48.0 KГц - Комментарии создателей (переведено субтитрами)

MediaInfo

Формат                           : Matroska
Версия формата                   : Version 2
Размер файла                     : 22,6 Гбайт
Продолжительность                : 1 ч. 25 м.
Общий поток                      : 37,6 Мбит/сек
Название фильма                  : Madagascar (2005) [1080p] BDRemux
Дата кодирования                 : UTC 2012-01-22 19:23:19
Программа кодирования            : mkvmerge v5.2.0 ('I can't explain') built on Dec 18 2011 18:12:03
Библиотека кодирования           : libebml v1.2.3 + libmatroska v1.3.0
Attachment                       : Yes / Yes
Видео
Идентификатор                    : 1
Формат                           : AVC
Формат/Информация                : Advanced Video Codec
Профиль формата                  : [url=mailto:High@L4.1]High@L4.1[/url]
Параметр CABAC формата           : Да
Параметр ReFrames формата        : 4 кадра
Идентификатор кодека             : V_MPEG4/ISO/AVC
Продолжительность                : 1 ч. 25 м.
Вид битрейта                     : Переменный
Максимальный битрейт             : 35,0 Мбит/сек
Ширина                           : 1920 пикселей
Высота                           : 1080 пикселей
Соотношение сторон               : 16:9
Частота кадров                   : 23,976 кадра/сек
Цветовое пространство            : YUV
Субдискретизация насыщенности    : 4:2:0
Битовая глубина                  : 8 бит
Тип развёртки                    : Прогрессивная
Заголовок                        : Madagascar (2005) [1080p] BDRemux (by sergey2925 for NNM-Club.ru)
Язык                             : English
Основные цвета                   : BT.709-5, BT.1361, IEC 61966-2-4, SMPTE RP177
Характеристики трансфера         : BT.709-5, BT.1361
Коэффициенты матрицы             : BT.709-5, BT.1361, IEC 61966-2-4 709, SMPTE RP177
Аудио #1
Идентификатор                    : 2
Формат                           : AC-3
Формат/Информация                : Audio Coding 3
Расширение режима                : CM (complete main)
Идентификатор кодека             : A_AC3
Продолжительность                : 1 ч. 25 м.
Вид битрейта                     : Постоянный
Битрейт                          : 640 Кбит/сек
Каналы                           : 6 каналов
Расположение каналов             : Front: L C R, Side: L R, LFE
Частота                          : 48,0 КГц
Битовая глубина                  : 16 бит
Метод сжатия                     : С потерями
Размер потока                    : 394 Мбайт (2%)
Заголовок                        : RUS.DUB.AC-3
Язык                             : Russian
Аудио #2
Идентификатор                    : 3
Формат                           : AC-3
Формат/Информация                : Audio Coding 3
Расширение режима                : CM (complete main)
Идентификатор кодека             : A_AC3
Продолжительность                : 1 ч. 25 м.
Вид битрейта                     : Постоянный
Битрейт                          : 448 Кбит/сек
Каналы                           : 6 каналов
Расположение каналов             : Front: L C R, Side: L R, LFE
Частота                          : 48,0 КГц
Битовая глубина                  : 16 бит
Метод сжатия                     : С потерями
Размер потока                    : 275 Мбайт (1%)
Заголовок                        : RUS.MVO (Tycoon)
Язык                             : Russian
Аудио #3
Идентификатор                    : 4
Формат                           : AC-3
Формат/Информация                : Audio Coding 3
Расширение режима                : CM (complete main)
Идентификатор кодека             : A_AC3
Продолжительность                : 1 ч. 25 м.
Вид битрейта                     : Постоянный
Битрейт                          : 448 Кбит/сек
Каналы                           : 6 каналов
Расположение каналов             : Front: L C R, Side: L R, LFE
Частота                          : 48,0 КГц
Битовая глубина                  : 16 бит
Метод сжатия                     : С потерями
Задержка видео                   : 21 мс.
Размер потока                    : 275 Мбайт (1%)
Заголовок                        : RUS.AVO (Gavrilov)
Язык                             : Russian
Аудио #4
Идентификатор                    : 5
Формат                           : TrueHD
Идентификатор кодека             : A_TRUEHD
Продолжительность                : 1 ч. 25 м.
Вид битрейта                     : Переменный
Максимальный битрейт             : 5049 Кбит/сек
Каналы                           : 6 каналов
Расположение каналов             : Front: L C R, Side: L R, LFE
Частота                          : 48,0 КГц
Метод сжатия                     : Без потерь
Заголовок                        : ENG.Losless
Язык                             : English
Аудио #5
Идентификатор                    : 6
Формат                           : AC-3
Формат/Информация                : Audio Coding 3
Профиль формата                  : Dolby Digital
Расширение режима                : CM (complete main)
Идентификатор кодека             : A_AC3
Продолжительность                : 1 ч. 25 м.
Вид битрейта                     : Постоянный
Битрейт                          : 224 Кбит/сек
Каналы                           : 2 канала
Расположение каналов             : Front: L R
Частота                          : 48,0 КГц
Битовая глубина                  : 16 бит
Метод сжатия                     : С потерями
Размер потока                    : 138 Мбайт (1%)
Заголовок                        : ENG. (Comment)
Язык                             : English
Текст #1
Идентификатор                    : 7
Формат                           : UTF-8
Идентификатор кодека             : S_TEXT/UTF8
Идентификатор кодека/Информация  : UTF-8 Plain Text
Заголовок                        : RUS.SUB.Forced
Язык                             : Russian
Текст #2
Идентификатор                    : 8
Формат                           : UTF-8
Идентификатор кодека             : S_TEXT/UTF8
Идентификатор кодека/Информация  : UTF-8 Plain Text
Заголовок                        : RUS.SUB.Full
Язык                             : Russian
Текст #3
Идентификатор                    : 9
Формат                           : UTF-8
Идентификатор кодека             : S_TEXT/UTF8
Идентификатор кодека/Информация  : UTF-8 Plain Text
Заголовок                        : ENG.SUB.Full
Язык                             : English
Текст #4
Идентификатор                    : 10
Формат                           : UTF-8
Идентификатор кодека             : S_TEXT/UTF8
Идентификатор кодека/Информация  : UTF-8 Plain Text
Заголовок                        : RUS.SUB.Commentary
Язык                             : Russian
Меню
00:00:00.000                     : en:(01)00:00:00:000
00:05:34.167                     : en:(02)00:05:34:167
00:08:35.473                     : en:(03)00:08:35:473
00:12:40.092                     : en:(04)00:12:40:092
00:17:56.867                     : en:(05)00:17:56:867
00:22:32.684                     : en:(06)00:22:32:684
00:26:56.615                     : en:(07)00:26:56:615
00:30:57.856                     : en:(08)00:30:57:856
00:35:30.878                     : en:(09)00:35:30:878
00:40:06.570                     : en:(10)00:40:06:570
00:44:34.797                     : en:(11)00:44:34:797
00:48:52.346                     : en:(12)00:48:52:346
00:52:18.844                     : en:(13)00:52:18:844
00:57:15.557                     : en:(14)00:57:15:557
01:02:16.733                     : en:(15)01:02:16:733
01:06:56.554                     : en:(16)01:06:56:554
01:12:37.102                     : en:(17)01:12:37:102
01:16:20.117                     : en:(18)01:16:20:117
01:18:18.652                     : en:(19)01:18:18:652
01:19:10.036                     : en:(20)01:19:10:036
01:25:57.861                     : en:(21)01:25:57:861

BV

  
  -Скриншоты:

-

Мадагаскар 2 / Madagascar: Escape 2 Africa (2008) [1080p] BDRemux

Мадагаскар 2 / Madagascar: Escape 2 Africa (2008) [1080p] BDRemux-«Осторожно, звери возвращаются!»- Русское название: Мадагаскар 2
Оригинальное название: Madagascar: Escape 2 Africa
Год выпуска: 2008
Жанр: мультфильм, комедия, приключения, семейный
Режиссер: Эрик Дарнелл, Том МакГрат
В главных ролях: Бен Стиллер, Крис Рок, Дэвид Швиммер, Джада Пинкетт Смит,
Саша Барон Коэн, Седрик «Развлекатель», Энди Рихтер, Берни Мак, Алек Болдуин, Шерри Шеперд и др.
Роли дублировали: Константин Хабенский, Оскар Кучера, Александр Цекало, Маша Малиновская, Андрей Лёвин, Сергей Козик, Александр Трофимов, Александр Аравушкин, Артем Веселов и др.
Опиcание фильма:
Полная опасностей жизнь на Мадагаскаре не оправдала ожиданий привыкших к комфорту Нью-Йоркского зоопарка животных — льва Алекса, зебры Марти, жирафа Мелмана и бегемотихи Глории — и друзья решают сбежать с острова. По случайности, всю компанию заносит в Африку, где Алекс встречает свою семью, с которой он был разлучен в детстве. Неожиданно для себя Алекс понимает, что после жизни в зоопарке у него гораздо меньше общего с родственниками, чем ему хотелось бы…-Продолжительность: 01:29:24
Качество видео: BDRemux
Контейнер: MKV
Перевод: дублированный, двухголосый закадровый
Субтитры: русские(полные, форсированные), английские-
Дата мировой премьеры: 30 октября 2008
Дата российской премьеры: 30 октября 2008, «UPI»
Релиз на DVD: 24 марта 2009, «Юниверсал Пикчерс Рус»
Релиз на Blu-Ray: 24 марта 2009, «Юниверсал Пикчерс Рус»- 
Видеокодек: MPEG-4 AVC/H.264
Аудиокодек: AC-3, TrueHD
Видео: 1920x1080, 29252 kbps(1080p, 23.976 fps, 16:9, High @L4.1)
Аудио1: AC-3 5.1, 640 Kbps, 48.0 KГц - дублированный
Аудио2: AC-3 5.1, 384 Kbps, 48.0 KГц - двухголосый закадровый (П.Гланц и И.Королёва)
Аудио3: TrueHD 5.1, 4950 Kbps, 48.0 KГц - English
Аудио4: AC-3 2.0, 224 Kbps, 48.0 KГц - Комментарии создателей (переведено субтитрами)

MediaInfo

Формат                           : Matroska
Версия формата                   : Version 2
Размер файла                     : 21,2 Гбайт
Продолжительность                : 1 ч. 29 м.
Общий поток                      : 33,9 Мбит/сек
Название фильма                  : Madagascar (2005) [1080p] BDRemux
Дата кодирования                 : UTC 2012-01-22 18:23:45
Программа кодирования            : mkvmerge v5.2.0 ('I can't explain') built on Dec 18 2011 18:12:03
Библиотека кодирования           : libebml v1.2.3 + libmatroska v1.3.0
Attachment                       : Yes / Yes / Yes / Yes / Yes
Видео
Идентификатор                    : 1
Формат                           : AVC
Формат/Информация                : Advanced Video Codec
Профиль формата                  : [url=mailto:High@L4.1]High@L4.1[/url]
Параметр CABAC формата           : Да
Параметр ReFrames формата        : 4 кадра
Идентификатор кодека             : V_MPEG4/ISO/AVC
Продолжительность                : 1 ч. 29 м.
Вид битрейта                     : Переменный
Максимальный битрейт             : 31,7 Мбит/сек
Ширина                           : 1920 пикселей
Высота                           : 1080 пикселей
Соотношение сторон               : 16:9
Частота кадров                   : 23,976 кадра/сек
Цветовое пространство            : YUV
Субдискретизация насыщенности    : 4:2:0
Битовая глубина                  : 8 бит
Тип развёртки                    : Прогрессивная
Заголовок                        : Madagascar: Escape 2 Africa (2008) [1080p] BDRemux (by sergey2925 for NNM-Club.ru)
Язык                             : English
Основные цвета                   : BT.709-5, BT.1361, IEC 61966-2-4, SMPTE RP177
Характеристики трансфера         : BT.709-5, BT.1361
Коэффициенты матрицы             : BT.709-5, BT.1361, IEC 61966-2-4 709, SMPTE RP177
Аудио #1
Идентификатор                    : 2
Формат                           : AC-3
Формат/Информация                : Audio Coding 3
Расширение режима                : CM (complete main)
Идентификатор кодека             : A_AC3
Продолжительность                : 1 ч. 29 м.
Вид битрейта                     : Постоянный
Битрейт                          : 640 Кбит/сек
Каналы                           : 6 каналов
Расположение каналов             : Front: L C R, Side: L R, LFE
Частота                          : 48,0 КГц
Битовая глубина                  : 16 бит
Метод сжатия                     : С потерями
Размер потока                    : 409 Мбайт (2%)
Заголовок                        : RUS.DUB.AC-3
Язык                             : Russian
Аудио #2
Идентификатор                    : 3
Формат                           : AC-3
Формат/Информация                : Audio Coding 3
Расширение режима                : CM (complete main)
Идентификатор кодека             : A_AC3
Продолжительность                : 1 ч. 29 м.
Вид битрейта                     : Постоянный
Битрейт                          : 384 Кбит/сек
Каналы                           : 6 каналов
Расположение каналов             : Front: L C R, Side: L R, LFE
Частота                          : 48,0 КГц
Битовая глубина                  : 16 бит
Метод сжатия                     : С потерями
Размер потока                    : 246 Мбайт (1%)
Заголовок                        : RUS.DVO.AC-3 (Glance)
Язык                             : Russian
Аудио #3
Идентификатор                    : 4
Формат                           : TrueHD
Идентификатор кодека             : A_TRUEHD
Продолжительность                : 1 ч. 29 м.
Вид битрейта                     : Переменный
Максимальный битрейт             : 4950 Кбит/сек
Каналы                           : 6 каналов
Расположение каналов             : Front: L C R, Side: L R, LFE
Частота                          : 48,0 КГц
Метод сжатия                     : Без потерь
Заголовок                        : ENG.Losless
Язык                             : English
Аудио #4
Идентификатор                    : 5
Формат                           : AC-3
Формат/Информация                : Audio Coding 3
Расширение режима                : CM (complete main)
Идентификатор кодека             : A_AC3
Продолжительность                : 1 ч. 29 м.
Вид битрейта                     : Постоянный
Битрейт                          : 224 Кбит/сек
Каналы                           : 2 канала
Расположение каналов             : Front: L R
Частота                          : 48,0 КГц
Битовая глубина                  : 16 бит
Метод сжатия                     : С потерями
Размер потока                    : 143 Мбайт (1%)
Заголовок                        : ENG. (Comment)
Язык                             : English
Текст #1
Идентификатор                    : 6
Формат                           : UTF-8
Идентификатор кодека             : S_TEXT/UTF8
Идентификатор кодека/Информация  : UTF-8 Plain Text
Заголовок                        : RUS.SUB.Forced
Язык                             : Russian
Текст #2
Идентификатор                    : 7
Формат                           : UTF-8
Идентификатор кодека             : S_TEXT/UTF8
Идентификатор кодека/Информация  : UTF-8 Plain Text
Заголовок                        : RUS.SUB.Full
Язык                             : Russian
Текст #3
Идентификатор                    : 8
Формат                           : UTF-8
Идентификатор кодека             : S_TEXT/UTF8
Идентификатор кодека/Информация  : UTF-8 Plain Text
Заголовок                        : ENG.SUB.Full
Язык                             : English
Текст #4
Идентификатор                    : 9
Формат                           : UTF-8
Идентификатор кодека             : S_TEXT/UTF8
Идентификатор кодека/Информация  : UTF-8 Plain Text
Заголовок                        : RUS.SUB.(Comment)
Язык                             : Russian
Меню
00:00:00.000                     : en:(01)00:00:00:000
00:04:15.880                     : en:(02)00:04:15:880
00:06:46.614                     : en:(03)00:06:46:614
00:09:25.773                     : en:(04)00:09:25:773
00:15:51.951                     : en:(05)00:15:51:951
00:17:34.762                     : en:(06)00:17:34:762
00:20:26.934                     : en:(07)00:20:26:934
00:23:57.352                     : en:(08)00:23:57:352
00:28:03.556                     : en:(09)00:28:03:556
00:30:58.898                     : en:(10)00:30:58:898
00:33:52.905                     : en:(11)00:33:52:905
00:35:19.909                     : en:(12)00:35:19:909
00:38:15.418                     : en:(13)00:38:15:418
00:42:59.910                     : en:(14)00:42:59:910
00:45:35.941                     : en:(15)00:45:35:941
00:49:22.918                     : en:(16)00:49:22:918
00:52:17.259                     : en:(17)00:52:17:259
00:55:17.772                     : en:(18)00:55:17:772
00:57:59.809                     : en:(19)00:57:59:809
01:03:28.638                     : en:(20)01:03:28:638
01:06:33.948                     : en:(21)01:06:33:948
01:15:17.888                     : en:(22)01:15:17:888
01:19:48.074                     : en:(23)01:19:48:074
01:29:24.150                     : en:(24)01:29:24:150

BV

  
  -Скриншоты:

-

Мадагаскар 3 / Madagascar 3: Europe's Most Wanted (2012) [1080p] BDRemux

Мадагаскар 3 / Madagascar 3: Europe's Most Wanted (2012) [1080p] BDRemux-«The world is sick. And we are the doctors.»- Русское название: Мадагаскар 3
Оригинальное название: Madagascar 3: Europe's Most Wanted
Год выпуска: 2012
Жанр: мультфильм, комедия, приключения, семейный
Режиссер: Эрик Дарнелл, Том МакГрат, Конрад Вернон
В главных ролях: Бен Стиллер, Крис Рок, Дэвид Швиммер, Джада Пинкетт Смит, Саша Барон Коэн, Седрик «Развлекатель», Энди Рихтер, Том МакГрат, Фрэнсис МакДорманд, Джессика Честейн
Роли дублировали: Константин Хабенский, Оскар Кучера, Александр Цекало, Маша Малиновская, Андрей Лёвин
Опиcание фильма:
Лев Алекс, зебра Марти, гиппопотамиха Глория и жираф Мелман, а также король Джулиан, Морис, Морт и Пингвины все еще пытаются вернуться в Нью-Йорк. На этот раз их путь пройдет через Европу, где они откроют свой цирк.-Продолжительность: 01:33:24 + 01:25:58 + 01:29:24
Качество видео: BDRemux
Контейнер: MKV
Перевод: дублированный
Субтитры: Русские (форсированные, полные), английские (полные, SDH, комментарии)-
Дата мировой премьеры: 18 мая 2012
Дата российской премьеры: 7 июня 2012, «Централ Партнершип»
Релиз на DVD: 16 октября 2012, «Новый Диск»
Релиз на Blu-Ray: 16 октября 2012, «Новый Диск»- 
Видеокодек: MPEG-4 AVC/H.264
Аудиокодек: AC-3, TrueHD
Видео: 1920x1080, 28829 kbps(1080p, 23.976 fps, 16:9, High @L4.1)
Аудио1: AC-3 5.1, 640 Kbps, 48.0 KГц - дублированный
Аудио2: AC-3 5.1, 640 Kbps, 48.0 KГц - English
Аудио3: TrueHD 7.1, 4573 Kbps, 48.0 KГц - English
Аудио4: AC-3 2.0, 128 Kbps, 48.0 KГц - English (комментарии)

MediaInfo

Формат                                   : Matroska
Версия формата                           : Version 2
Размер файла                             : 22,7 Гбайт
Продолжительность                        : 1 ч. 33 м.
Режим общего битрейта                    : Переменный
Общий поток                              : 34,9 Мбит/сек
Название фильма                          : NNM-Club.ru
Дата кодирования                         : UTC 2012-10-14 18:20:28
Программа кодирования                    : mkvmerge v5.8.0 ('No Sleep / Pillow') built on Sep  2 2012 15:37:04
Библиотека кодирования                   : libebml v1.2.3 + libmatroska v1.3.0
Видео
Идентификатор                            : 1
Формат                                   : AVC
Формат/Информация                        : Advanced Video Codec
Профиль формата                          : [url=mailto:High@L4.1]High@L4.1[/url]
Параметр CABAC формата                   : Да
Параметр ReFrames формата                : 4 кадра
Идентификатор кодека                     : V_MPEG4/ISO/AVC
Продолжительность                        : 1 ч. 33 м.
Вид битрейта                             : Переменный
Максимальный битрейт                     : 31,4 Мбит/сек
Ширина                                   : 1920 пикселей
Высота                                   : 1080 пикселей
Соотношение сторон                       : 16:9
Частота кадров                           : 23,976 кадра/сек
Цветовое пространство                    : YUV
Субдискретизация насыщенности            : 4:2:0
Битовая глубина                          : 8 бит
Тип развёртки                            : Прогрессивная
Заголовок                                : Madagascar 3_Europe's Most Wanted (2012) [1080p] BDRemux
Язык                                     : English
Default                                  : Да
Forced                                   : Нет
Аудио #1
Идентификатор                            : 2
Формат                                   : AC-3
Формат/Информация                        : Audio Coding 3
Расширение режима                        : CM (complete main)
Идентификатор кодека                     : A_AC3
Продолжительность                        : 1 ч. 33 м.
Вид битрейта                             : Постоянный
Битрейт                                  : 640 Кбит/сек
Каналы                                   : 6 каналов
Расположение каналов                     : Front: L C R, Side: L R, LFE
Частота                                  : 48,0 КГц
Битовая глубина                          : 16 бит
Метод сжатия                             : С потерями
Размер потока                            : 428 Мбайт (2%)
Заголовок                                : DD 5.1 @ 640 kbps - Russian DUB, BD EUR
Язык                                     : Russian
Default                                  : Да
Forced                                   : Нет
Аудио #2
Идентификатор                            : 3
Формат                                   : AC-3
Формат/Информация                        : Audio Coding 3
Расширение режима                        : CM (complete main)
Идентификатор кодека                     : A_AC3
Продолжительность                        : 1 ч. 33 м.
Вид битрейта                             : Постоянный
Битрейт                                  : 640 Кбит/сек
Каналы                                   : 6 каналов
Расположение каналов                     : Front: L C R, Side: L R, LFE
Частота                                  : 48,0 КГц
Битовая глубина                          : 16 бит
Метод сжатия                             : С потерями
Размер потока                            : 428 Мбайт (2%)
Заголовок                                : DD 5.1 @ 640 kbps
Язык                                     : English
Default                                  : Нет
Forced                                   : Нет
Аудио #3
Идентификатор                            : 4
Формат                                   : TrueHD
Идентификатор кодека                     : A_TRUEHD
Продолжительность                        : 1 ч. 33 м.
Вид битрейта                             : Переменный
Максимальный битрейт                     : 5997 Кбит/сек
Каналы                                   : 8 каналов
Расположение каналов                     : Front: L C R, Side: L R, Back: L R, LFE
Частота                                  : 48,0 КГц
Метод сжатия                             : Без потерь
Заголовок                                : True HD @ 4200 kbps
Язык                                     : English
Default                                  : Нет
Forced                                   : Нет
Аудио #4
Идентификатор                            : 5
Формат                                   : AC-3
Формат/Информация                        : Audio Coding 3
Расширение режима                        : CM (complete main)
Идентификатор кодека                     : A_AC3
Продолжительность                        : 1 ч. 33 м.
Вид битрейта                             : Постоянный
Битрейт                                  : 128 Кбит/сек
Каналы                                   : 2 канала
Расположение каналов                     : Front: L R
Частота                                  : 48,0 КГц
Битовая глубина                          : 16 бит
Метод сжатия                             : С потерями
Размер потока                            : 85,5 Мбайт (0%)
Заголовок                                : Director's Commentary
Язык                                     : English
Default                                  : Нет
Forced                                   : Нет
Текст #1
Идентификатор                            : 6
Формат                                   : UTF-8
Идентификатор кодека                     : S_TEXT/UTF8
Идентификатор кодека/Информация          : UTF-8 Plain Text
Заголовок                                : Forced
Язык                                     : Russian
Default                                  : Да
Forced                                   : Да
Текст #2
Идентификатор                            : 7
Формат                                   : UTF-8
Идентификатор кодека                     : S_TEXT/UTF8
Идентификатор кодека/Информация          : UTF-8 Plain Text
Язык                                     : Russian
Default                                  : Нет
Forced                                   : Нет
Текст #3
Идентификатор                            : 8
Формат                                   : UTF-8
Идентификатор кодека                     : S_TEXT/UTF8
Идентификатор кодека/Информация          : UTF-8 Plain Text
Язык                                     : English
Default                                  : Нет
Forced                                   : Нет
Текст #4
Идентификатор                            : 9
Формат                                   : UTF-8
Идентификатор кодека                     : S_TEXT/UTF8
Идентификатор кодека/Информация          : UTF-8 Plain Text
Заголовок                                : SDH
Язык                                     : English
Default                                  : Нет
Forced                                   : Нет
Текст #5
Идентификатор                            : 10
Формат                                   : UTF-8
Идентификатор кодека                     : S_TEXT/UTF8
Идентификатор кодека/Информация          : UTF-8 Plain Text
Заголовок                                : Director's Commentary
Язык                                     : English
Default                                  : Нет
Forced                                   : Нет
Меню #1
00:00:00.000                             : en:00:00:00.000
00:05:16.316                             : en:00:05:16.316
00:10:51.985                             : en:00:10:51.985
00:19:46.310                             : en:00:19:46.310
00:27:49.835                             : en:00:27:49.835
00:32:50.552                             : en:00:32:50.552
00:40:34.974                             : en:00:40:34.974
00:46:51.976                             : en:00:46:51.976
00:52:00.534                             : en:00:52:00.534
00:58:55.157                             : en:00:58:55.157
01:00:23.411                             : en:01:00:23.411
01:04:19.314                             : en:01:04:19.314
01:10:59.672                             : en:01:10:59.672
01:15:30.317                             : en:01:15:30.317
01:21:09.782                             : en:01:21:09.782
01:22:48.630                             : en:01:22:48.630
Меню #2
00:00:00.000                             : :Chapter 01
00:05:16.315                             : :Chapter 02
00:10:51.984                             : :Chapter 03
00:19:46.310                             : :Chapter 04
00:27:49.834                             : :Chapter 05
00:32:50.551                             : :Chapter 06
00:40:34.974                             : :Chapter 07
00:46:51.975                             : :Chapter 08
00:52:00.534                             : :Chapter 09
00:58:55.156                             : :Chapter 10
01:00:23.411                             : :Chapter 11
01:04:19.313                             : :Chapter 12
01:10:59.672                             : :Chapter 13
01:15:30.317                             : :Chapter 14
01:21:09.781                             : :Chapter 15
01:22:48.630                             : :Chapter 16
01:33:23.931                             : :Chapter 17

BV

  
  -Скриншоты:

[Цитировать]



Показать сообщения:    

Текущее время: 20-Фев 04:56

Часовой пояс: UTC + 3


Вы не можете начинать темы
Вы не можете отвечать на сообщения
Вы не можете редактировать свои сообщения
Вы не можете удалять свои сообщения
Вы не можете голосовать в опросах
Вы не можете прикреплять файлы к сообщениям
Вы не можете скачивать файлы

!ВНИМАНИЕ!
Сайт не предоставляет электронные версии произведений, а занимается лишь коллекционированием и каталогизацией ссылок, присылаемых и публикуемых на форуме нашими читателями. Если вы являетесь правообладателем какого-либо представленного материала и не желаете, чтобы ссылка на него находилась в нашем каталоге, свяжитесь с нами, и мы незамедлительно удалим ее. Файлы для обмена на трекере предоставлены пользователями сайта, и администрация не несет ответственности за их содержание. Просьба не заливать файлы, защищенные авторскими правами, а также файлы нелегального содержания!