[ Сегодня идет свободное скачивание без начисления Download ]


Статистика раздачи
Нет
 
   
 
Top  
 
 
Стальной гигант
The Iron Giant
-«It came from outer space!»- Год выпуска: 1999
Страна: США, Walt Disney Pictures
Жанры: фантастика, приключения, семейный
Продолжительность: 01:26:33-Перевод:
  • Профессиональный (полное дублирование)
  • Авторский одноголосый Ю. Живов
-Cубтитры: Русские, Английские
Навигация по главам: есть-Режиссер: Брэд Бёрд / Brad Bird
Роли озвучивали: Дженнифер Энистон, Гарри Конник мл., Вин Дизель, Джеймс Гэммон, Клорис Личмен, Кристофер МакДональд, Джон Махони, Эли Мариентал, М. Эммет Уолш-Описание: Жители тихой американской провинции становятся свидетелями ослепительной вспышки и падения огромного летающего объекта. Спустя несколько дней мальчуган по имени Хогарт Хьюз находит в окрестностях гигантского робота, прилетевшего на Землю из далёкой космической галактики.
Несмотря на свой грозный вид, инопланетный гость оказывается добрейшим созданием. Между ним и отважным мальчишкой завязывается настоящая дружба. Но узнавшие о существовании робота правительство и военные решили уничтожить пришельца. Хогарт — единственный, кто может спасти стального гиганта…- -Качество: WEB-DL 720p (CHD)
Формат: MKV
Видео: MPEG4 Video (H264), 3 929 Kbps, 1280x532, 23.976 fps
Аудио #1: Russian - AС3, 384 Kbps, 48KHz, 6ch [Профессиональный Дубляж ]
Аудио #2: Russian - AС3, 384 Kbps, 48KHz, 6ch [Одноголосый закадровый, Ю. Живов]
Аудио #3: English - AС3, 384 Kbps, 48KHz, 6ch

Интересные факты о мультфильме:


  • В сцене, где Кент звонит по телефону из дома Хьюзов, можно заметить забавную рукавицу для духовки, которая напоминает собачку из 16 эпизода "Family Dog" второго сезона сериала "Невероятные истории". Брэд Бёрд был режиссёром данного эпизода;
  • Фрэнк и Олли, два машиниста, с которыми разговаривает Кент после крушения поезда, — это карикатуры на классиков диснеевской анимации Фрэнка Томаса и Олли Джонстона. Они же озвучили двух данных персонажей;
  • Хогарт смотрит по телевизору анимационную версию "Brain from Planet Arous" (1957);
  • На стене в комнате Хогарта висит постер фильма "Запретная планета" (1956);
  • Свои фамилии, Энни и Хогарт получили в честь Теда Хьюза, автора книги, по которой снят мультфильм;
  • "Стальной гигант" стал первым рисованным мультфильмом, в котором один из главных героев был полностью создан на компьютере;
  • В сцене, где Гигант смотрит на Роквелл, на небе можно заметить "двигающуюся звезду". Согласно создателям мультфильма, это — первый искусственный спутник;
  • Отец Хогарта был лётчиком-истребителем. Его фотографию можно заметить на комоде;
  • В сцене, где Хогарт собирается на поиски "захватчиков с Марса", в его ящике с игрушками можно заметить Багса Банни;
  • На специальном DVD-издании мультфильма можно найти 8 удалённых сцен, большая часть из которых не была анимирована и представлена в виде набросков и скетчей:
    - альтернативное начало с гораздо большим по размерам кораблём, команда которого наблюдала прибытие Гиганта;
    - ещё одна сцена с Хогартом в школе;
    - разговор между Хогартом и Энни о смерти отца Хогарта. Данная сцена шла после событий на электростанции;
    - ещё одна словесная перепалка между Хогартом и Кентом во время завтрака на следующий день, после того как Кент попробовал "специальное мороженное";
    - сцена возле костра между Хогартом, Дином и Гигантом;
    - сцена между Энни и Дином в кафе;
    - гигант и Хогарт участвуют в дрэг-рэйсинге;
    - ночной кошмар Гиганта, раскрывающий тайну его прошлого;

  • Изначально мультфильм задумывался как мюзикл;
  • Когда рука Гиганта "смотрит" телевизор, то изначально предполагалась, что на экране появится начальная сцена из "Disneyland" (1954). Однако создатели мультфильма так и не решили вопрос о праве использования отрывков из "Disneyland";
  • Для того чтобы лучше вписать компьютерного Гиганта в мир традиционной анимации, создатели мультфильма написали специальную программу, намеренно делавшую конторы Гиганта искажёнными и неровными, что позволило сымитировать эффект рисования от руки;
  • Заголовок в газете, которую читает Дин (Disaster Seen as Catastrophe Looms) похож на заголовок, который читает Джим Диар в "Леди и бродяга" (1955), и Джимини Крикет — в "Веселых и беззаботных" (1947)

Подробные тех. данные

General
Unique ID : 214539470887312437137185585408769735386 (0xA166CC935B598CAE9B8F43FF58DB3ADA)
Complete name : D:\Мультфильмы\Полнометражные\The Iron Giant.1999.720p.WEB-DL.DD5.1.H.264-CtrlHD.mkv
Format : Matroska
Format version : Version 2
File size : 3.14 GiB
Duration : 1h 26mn
Overall bit rate : 5 185 Kbps
Movie name : -=RbM=-
Encoded date : UTC 2013-02-12 10:58:14
Writing application : mkvmerge v5.7.0 ('The Whirlwind') built on Jul 29 2012 15:12:35
Writing library : libebml v1.2.3 + libmatroska v1.3.0
Video
ID : 1
Format : AVC
Format/Info : Advanced Video Codec
Format profile : [email protected]
Format settings, CABAC : No
Format settings, ReFrames : 2 frames
Codec ID : V_MPEG4/ISO/AVC
Duration : 1h 26mn
Bit rate : 3 929 Kbps
Width : 1 280 pixels
Height : 532 pixels
Display aspect ratio : 2.40:1
Frame rate mode : Constant
Frame rate : 23.976 fps
Color space : YUV
Chroma subsampling : 4:2:0
Bit depth : 8 bits
Scan type : Progressive
Bits/(Pixel*Frame) : 0.241
Stream size : 2.38 GiB (76%)
Language : English
Default : Yes
Forced : No
Color primaries : BT.709
Transfer characteristics : BT.709
Matrix coefficients : BT.709
Audio #1
ID : 2
Format : AC-3
Format/Info : Audio Coding 3
Mode extension : CM (complete main)
Format settings, Endianness : Big
Codec ID : A_AC3
Duration : 1h 26mn
Bit rate mode : Constant
Bit rate : 384 Kbps
Channel(s) : 6 channels
Channel positions : Front: L C R, Side: L R, LFE
Sampling rate : 48.0 KHz
Bit depth : 16 bits
Compression mode : Lossy
Delay relative to video : 2s 0ms
Stream size : 238 MiB (7%)
Title : Russian - DUB
Language : Russian
Default : Yes
Forced : No
Audio #2
ID : 3
Format : AC-3
Format/Info : Audio Coding 3
Mode extension : CM (complete main)
Format settings, Endianness : Big
Codec ID : A_AC3
Duration : 1h 26mn
Bit rate mode : Constant
Bit rate : 384 Kbps
Channel(s) : 6 channels
Channel positions : Front: L C R, Side: L R, LFE
Sampling rate : 48.0 KHz
Bit depth : 16 bits
Compression mode : Lossy
Delay relative to video : 24ms
Stream size : 238 MiB (7%)
Title : AC3 5.1ch 384 kbps - Одноголосый, Ю.Живов
Language : Russian
Default : No
Forced : No
Audio #3
ID : 4
Format : AC-3
Format/Info : Audio Coding 3
Mode extension : CM (complete main)
Format settings, Endianness : Big
Codec ID : A_AC3
Duration : 1h 26mn
Bit rate mode : Constant
Bit rate : 384 Kbps
Channel(s) : 6 channels
Channel positions : Front: L C R, Side: L R, LFE
Sampling rate : 48.0 KHz
Bit depth : 16 bits
Compression mode : Lossy
Delay relative to video : 2s 0ms
Stream size : 238 MiB (7%)
Title : English
Language : English
Default : No
Forced : No
Text #1
ID : 5
Format : UTF-8
Codec ID : S_TEXT/UTF8
Codec ID/Info : UTF-8 Plain Text
Language : Russian
Default : No
Forced : No
Text #2
ID : 6
Format : UTF-8
Codec ID : S_TEXT/UTF8
Codec ID/Info : UTF-8 Plain Text
Language : English
Default : No
Forced : No
Menu
00:00:00.000 : en:Eye(s) of the storm.
00:02:23.000 : en:Rocket in pocket.
00:06:08.000 : en:Home alone.
00:08:55.000 : en:Into the woods.
00:10:28.000 : en:Power lunch.
00:12:44.000 : en:You won't believe this.
00:14:50.000 : en:Educational film.
00:16:20.000 : en:Enter Kent.
00:18:13.000 : en:Something big.
00:20:33.000 : en:The luckiest kid.
00:23:50.000 : en:Train coming.
00:25:44.000 : en:Mr. Fixit.
00:27:52.000 : en:Hand underfoot.
00:29:53.000 : en:National insecurity.
00:32:16.000 : en:Hand underfoot 2.
00:33:39.000 : en:Bedtime stories.
00:36:08.000 : en:All u can eat.
00:37:51.000 : en:We like Dean.
00:40:19.000 : en:Fast friends.
00:44:01.000 : en:Satellites and Sundaes.
00:45:48.000 : en:Fun & games.
00:48:04.000 : en:Banzai!
00:50:30.000 : en:Innocent creatures.
00:52:29.000 : en:Souls don't die.
00:54:01.000 : en:Bad dream
00:58:27.000 : en:Artful disguise.
01:01:24.000 : en:Weapons to bear.
01:03:40.000 : en:Not a gun.
01:05:32.000 : en:Like Superman.
01:09:00.000 : en:Arsenals unleashed.
01:10:16.000 : en:The Bomb.
01:13:57.000 : en:No following.
01:16:37.000 : en:See you later.
01:19:23.000 : en:End Credits.

Скриншоты

[Цитировать]



Показать сообщения:    

Текущее время: 04-Дек 02:52

Часовой пояс: UTC + 3


Вы не можете начинать темы
Вы не можете отвечать на сообщения
Вы не можете редактировать свои сообщения
Вы не можете удалять свои сообщения
Вы не можете голосовать в опросах
Вы не можете прикреплять файлы к сообщениям
Вы не можете скачивать файлы

!ВНИМАНИЕ!
Сайт не предоставляет электронные версии произведений, а занимается лишь коллекционированием и каталогизацией ссылок, присылаемых и публикуемых на форуме нашими читателями. Если вы являетесь правообладателем какого-либо представленного материала и не желаете, чтобы ссылка на него находилась в нашем каталоге, свяжитесь с нами, и мы незамедлительно удалим ее. Файлы для обмена на трекере предоставлены пользователями сайта, и администрация не несет ответственности за их содержание. Просьба не заливать файлы, защищенные авторскими правами, а также файлы нелегального содержания!