[ Сегодня идет свободное скачивание без начисления Download ]


Статистика раздачи
Нет
 
   
 
Top  
 
 
-Продавец игрушек (2012) CamRip- Русское название: Продавец игрушек
Год выпуска: 2012
Производство: Россия | Natsionalnoe Kino
Жанр: Мелодрама, Комедия
Перевод: Не требуется (Русский)
Субтитры: Отсутствуют
Дата российской премьеры: 7 января 2013, «Наше Кино»
Режиссер: Юрий Васильев
Продюсер: Виктор Добросоцкий, Мария Журомская, Эльмира Айнулова
Актеры: Шамиль Хаматов, Агния Чадова, Татьяна Лютаева, Вениамин Смехов, Пьер Ришар, Андрей Барило, Ольга Волкова, Тифани Давио, Евгений Шиманович, Александр Соловьев
Описание фильма:
Николя Берсен - француз с русскими корнями. Живет в Париже и работает продавцом игрушек. Ни мама, ни французская невеста - дочь Парижского кондитерского «короля» - не одобряют чудачества Николя, ведь сорбонское образование позволяет ему сделать прекрасную карьеру в бизнесе. Перед Рождеством Николя отправляется в Россию, чтобы больше узнать о своем происхождении. Кто мог предположить, что эта поездка изменит его жизнь? В России его ждут приключения, фамильные сокровища, и... настоящая любовь.

Продолжительность: 01:29:58
Качество видео: CamRip
Видеокодек: Xvid
Битрейт видео: ~2031 Kbit/s
Размер кадра: 720 x 256
Аудиокодек: MP3, 2.0
Битрейт аудио: 128 Kbit/s

MediaInfo

Общее
Полное имя : D:\Торренты\Продавец игрушек.2012.CamRip.avi
Формат : AVI
Формат/Информация : Audio Video Interleave
Размер файла : 1,36 Гбайт
Продолжительность : 1 ч. 29 м.
Общий поток : 2169 Кбит/сек
Программа кодирования : VirtualDubMod 1.5.10.3 (build 2550/release)
Библиотека кодирования : VirtualDubMod build 2550/release
Видео
Идентификатор : 0
Формат : MPEG-4 Visual
Профиль формата : Advanced Simple@L5
Параметр BVOP формата : 2
Параметр QPel формата : Нет
Параметр GMC формата : Без точки перехода
Параметр матрицы формата : Выборочная
Идентификатор кодека : XVID
Идентификатор кодека/Подсказка : XviD
Продолжительность : 1 ч. 29 м.
Битрейт : 2031 Кбит/сек
Ширина : 720 пикс.
Высота : 256 пикс.
Соотношение сторон : 2,813
Частота кадров : 25,000 кадр/сек
Цветовое пространство : YUV
Подвыборка цветности : 4:2:0
Битовая глубина : 8 бит
Тип развёртки : Прогрессивная
Метод сжатия : С потерями
Бит/(Пиксели*Кадры) : 0.441
Размер потока : 1,28 Гбайт (94%)
Библиотека кодирования : XviD 1.2.1 (UTC 2008-12-04)
Аудио
Идентификатор : 1
Формат : MPEG Audio
Версия формата : Version 1
Профиль формата : Layer 3
Идентификатор кодека : 55
Идентификатор кодека/Подсказка : MP3
Продолжительность : 1 ч. 29 м.
Вид битрейта : Постоянный
Битрейт : 128 Кбит/сек
Каналы : 2 канала
Частота : 48,0 КГц
Метод сжатия : С потерями
Размер потока : 82,4 Мбайт (6%)
Выравнивание : Соединение по промежуткам
Продолжительность промежутка : 40 мс. (1,00 видеокадр)
Время предзагрузки промежутка : 504 ms
Библиотека кодирования : LAME3.99r
Скриншоты:
Время раздачи: 24/7 по возможности

[Цитировать]

Топик был перенесен из форума Новинки кинопроката в форум Мелодрама
Henkok



Показать сообщения:    

Текущее время: 10-Дек 11:57

Часовой пояс: UTC + 3


Вы не можете начинать темы
Вы не можете отвечать на сообщения
Вы не можете редактировать свои сообщения
Вы не можете удалять свои сообщения
Вы не можете голосовать в опросах
Вы не можете прикреплять файлы к сообщениям
Вы не можете скачивать файлы

!ВНИМАНИЕ!
Сайт не предоставляет электронные версии произведений, а занимается лишь коллекционированием и каталогизацией ссылок, присылаемых и публикуемых на форуме нашими читателями. Если вы являетесь правообладателем какого-либо представленного материала и не желаете, чтобы ссылка на него находилась в нашем каталоге, свяжитесь с нами, и мы незамедлительно удалим ее. Файлы для обмена на трекере предоставлены пользователями сайта, и администрация не несет ответственности за их содержание. Просьба не заливать файлы, защищенные авторскими правами, а также файлы нелегального содержания!