[ Сегодня идет свободное скачивание без начисления Download ]


Статистика раздачи
Нет
 
   
 
Top  
 
 
-Военный ныряльщик / Люди чести / Men of Honor-- Релиз от:
Выпущено: США, Fox 2000 Pictures, State Street Pictures
Русское название: Военный ныряльщик / Люди чести
Оригинальное название: Men of Honor
Год выпуска: 2000
Жанр: Драма, биография-Описание фильма: Фильм основан на реальных событиях из жизни легендарного водолаза Карла Брашира. Его наставник и старший офицер Билл Сандэй убежден, что неграм нечего делать во флоте, и самыми жестокими и бесчеловечными способами издевается и «обламывает» амбициозного новичка.
Однако ему это не удается, и более того, вскоре он начинает испытывать симпатию к этому чрезвычайно упертому парню, который скорее погибнет, чем покажет слабость. Вместе они пытаются сопротивляться бюрократам из командования ВМФ, которых не устраивает цвет кожи героя.
-Режиссер: Джордж Тиллман мл.
Актеры: Роберт Де Ниро, Кьюба Гудинг мл., Шарлиз Терон, Онжаню Эллис, Хэл Холбрук, Майкл Рапапорт, Пауэрс Бут, Дэвид Кейт, Холт МакКэллэни, Дэвид Конрад, Джошуа Леонард, Карл Ламбли, Лонетт МакКи, Глинн Турман, Dennis Troutman, Джошуа Фейнман, Theo Nicholas Pagones, Ryan Honey, Крис Уоррен мл., Лестер Б. Хэнсон, Джек Фрэзиер-Рейтинги:
Дата мировой премьеры: 14 сентября 2000-Продолжительность: 02:08:47
Перевод: Дубляж, Одноголосый закадровый |С.Визгунов|
Субтитры: Русские, Английские, Испанские, Итальянские (Full, SRT)
Качество видео: BDRip
Видеокодек: MPEG 4 AVC (H.264)
Битрейт видео: ~ 7345 Кбит/сек
Размер кадра: 1920x820
Аудио:
Аудио 1: 48 kHz, AC3, 3/2 (L,C,R,l,r) + LFE ch, ~384.00 kbps avg | Дубляж
Аудио 2: 48 kHz, DTS, 3/2 (L,C,R,l,r) + LFE ch, ~1510.00 kbps avg | Одноголосый закадровый, С.Визгунов
Аудио 3: 48 kHz, DTS, 3/2 (L,C,R,l,r) + LFE ch, ~1510.00 kbps avg | Оригинал

MediaInfo 0.7.50 (детальная информация о файле)

Общее
Уникальный идентификатор : 234546382119500392193329946714365480943 (0xB073FD750AA8D4F783A27925C3F3CFEF)
Полное имя :Men.of.Honor.2000.BDRip.1080p.mkv
Формат : Matroska
Версия формата : Version 2
Размер файла : 9,67 Гбайт
Продолжительность : 2 ч. 8 м.
Общий поток : 10,7 Мбит/сек
Название фильма : Reliz by FFmpeg
Дата кодирования : UTC 2011-11-02 09:49:10
Программа кодирования : mkvmerge v5.0.1 ('Es ist Sommer') built on Oct 24 2011 19:45:06
Библиотека кодирования : libebml v1.2.2 + libmatroska v1.3.0
Видео
Идентификатор : 1
Формат : AVC
Формат/Информация : Advanced Video Codec
Профиль формата : [email protected]
Параметр CABAC формата : Да
Параметр ReFrames формата : 4 кадра
Идентификатор кодека : V_MPEG4/ISO/AVC
Продолжительность : 2 ч. 8 м.
Битрейт : 7345 Кбит/сек
Ширина : 1920 пикселей
Высота : 820 пикселей
Соотношение сторон : 2,35:1
Частота кадров : 23,976 кадра/сек
Цветовое пространство : YUV
Субдискретизация насыщенности : 4:2:0
Битовая глубина : 8 бит
Тип развёртки : Прогрессивная
Бит/(Пиксели*Кадры) : 0.195
Размер потока : 6,41 Гбайт (66%)
Библиотека кодирования : x264 core 119 r2106 07efeb4
Настройки программы : cabac=1 / ref=4 / deblock=1:-1:-1 / analyse=0x3:0x113 / me=umh / subme=9 / psy=1 / psy_rd=1.00:0.00 / mixed_ref=1 / me_range=32 / chroma_me=1 / trellis=2 / 8x8dct=1 / cqm=0 / deadzone=21,11 / fast_pskip=0 / chroma_qp_offset=-2 / threads=6 / sliced_threads=0 / nr=0 / decimate=1 / interlaced=0 / bluray_compat=0 / constrained_intra=0 / bframes=4 / b_pyramid=2 / b_adapt=2 / b_bias=0 / direct=3 / weightb=1 / open_gop=0 / weightp=2 / keyint=240 / keyint_min=24 / scenecut=40 / intra_refresh=0 / rc_lookahead=60 / rc=2pass / mbtree=1 / bitrate=7345 / ratetol=1.0 / qcomp=0.60 / qpmin=0 / qpmax=69 / qpstep=4 / cplxblur=20.0 / qblur=0.5 / ip_ratio=1.40 / aq=1:1.00
Язык : English
Аудио #1
Идентификатор : 2
Формат : AC-3
Формат/Информация : Audio Coding 3
Расширение режима : CM (complete main)
Идентификатор кодека : A_AC3
Продолжительность : 2 ч. 8 м.
Вид битрейта : Постоянный
Битрейт : 384 Кбит/сек
Каналы : 6 каналов
Расположение каналов : Front: L C R, Side: L R, LFE
Частота : 48,0 КГц
Битовая глубина : 16 бит
Метод сжатия : С потерями
Размер потока : 354 Мбайт (4%)
Заголовок : Dub, R5
Язык : Russian
Аудио #2
Идентификатор : 3
Формат : DTS
Формат/Информация : Digital Theater Systems
Идентификатор кодека : A_DTS
Продолжительность : 2 ч. 8 м.
Вид битрейта : Постоянный
Битрейт : 1510 Кбит/сек
Каналы : 6 каналов
Расположение каналов : Front: L C R, Side: L R, LFE
Частота : 48,0 КГц
Битовая глубина : 24 бит
Метод сжатия : С потерями
Размер потока : 1,36 Гбайт (14%)
Заголовок : AVO
Язык : Russian
Аудио #3
Идентификатор : 4
Формат : DTS
Формат/Информация : Digital Theater Systems
Идентификатор кодека : A_DTS
Продолжительность : 2 ч. 8 м.
Вид битрейта : Постоянный
Битрейт : 1510 Кбит/сек
Каналы : 6 каналов
Расположение каналов : Front: L C R, Side: L R, LFE
Частота : 48,0 КГц
Битовая глубина : 24 бит
Метод сжатия : С потерями
Размер потока : 1,36 Гбайт (14%)
Заголовок : Original
Язык : English
Текст #1
Идентификатор : 5
Формат : UTF-8
Идентификатор кодека : S_TEXT/UTF8
Идентификатор кодека/Информация : UTF-8 Plain Text
Заголовок : Full, SDH
Язык : Russian
Текст #2
Идентификатор : 6
Формат : UTF-8
Идентификатор кодека : S_TEXT/UTF8
Идентификатор кодека/Информация : UTF-8 Plain Text
Заголовок : Full
Язык : English
Текст #3
Идентификатор : 7
Формат : UTF-8
Идентификатор кодека : S_TEXT/UTF8
Идентификатор кодека/Информация : UTF-8 Plain Text
Заголовок : Full
Язык : Spanish
Текст #4
Идентификатор : 8
Формат : UTF-8
Идентификатор кодека : S_TEXT/UTF8
Идентификатор кодека/Информация : UTF-8 Plain Text
Заголовок : Full
Язык : Italian
Меню
00:00:00.000 : en:Opening Credits/Dont End Up Like Me
00:07:31.534 : en:Big Future In The U.S. Navy
00:14:51.599 : en:Master Chief Sunday
00:21:40.299 : en:Beware What You Wish For
00:27:09.670 : en:Welcoming Bosuns Mate Brashear
00:36:03.286 : en:Passing The Test
00:42:32.550 : en:Salvage And Rescue
00:49:09.572 : en:Bad News
00:54:16.462 : en:The Bet
01:04:24.944 : en:Be The Best
01:10:44.365 : en:Against All Odds
01:19:32.017 : en:Happy New Year
01:25:00.721 : en:Missle Rescue
01:31:57.679 : en:Never Gonna Dive Again
01:41:48.311 : en:To Be A Master Diver
01:48:11.235 : en:Trial Of Honor
01:55:17.744 : en:Twelve Steps
02:02:24.337 : en:End Credits
02:08:47.762 : en:...

Знаете ли Вы, что...

Дословно название фильма можно перевести как «Люди чести».
Скриншоты:



[Цитировать]



Показать сообщения:    

Текущее время: 06-Дек 23:00

Часовой пояс: UTC + 3


Вы не можете начинать темы
Вы не можете отвечать на сообщения
Вы не можете редактировать свои сообщения
Вы не можете удалять свои сообщения
Вы не можете голосовать в опросах
Вы не можете прикреплять файлы к сообщениям
Вы не можете скачивать файлы

!ВНИМАНИЕ!
Сайт не предоставляет электронные версии произведений, а занимается лишь коллекционированием и каталогизацией ссылок, присылаемых и публикуемых на форуме нашими читателями. Если вы являетесь правообладателем какого-либо представленного материала и не желаете, чтобы ссылка на него находилась в нашем каталоге, свяжитесь с нами, и мы незамедлительно удалим ее. Файлы для обмена на трекере предоставлены пользователями сайта, и администрация не несет ответственности за их содержание. Просьба не заливать файлы, защищенные авторскими правами, а также файлы нелегального содержания!