[ Сегодня идет свободное скачивание без начисления Download ]


Статистика раздачи
Нет
 
   
 
Top  
 
 
-Шрамы 3D / Paranormal Xperience 3D (2011) BDRip- «Эксперименты с паранормальным продолжаются»- Русское название: Шрамы 3D
Оригинальное название: Paranormal Xperience 3D
Год выпуска: 2011
Жанр: Ужасы, Триллер, ...
Описание фильма:
Шестеро студентов медицинского института отправляются в заброшенную сеть пещер, где, по легенде, до сих пор блуждает призрак умершего доктора. Молодые люди уверены, что встречи с паранормальным в наш современный век — не более чем игра воображения. Да и экспедиция организована исключительно ради исследования мифов о человеческом подсознании. Но, оказавшись в пещерах, путешественники неожиданно начинают погибать один за другим самыми страшными способами…-Режиссер: Серхи Визкайно
Актеры: Амайя Саламанка, Макси Иглесиас, Луис Фернандес, Урсула Корберо, Оскар Синела, Альба Рибас, Мануэль Де Блас, Эдуард Фарело, Мириам Планас, Айна Планас
Роли дублировали: Александр Гаврилин, Александра Остроухова, Никита Прозоровский
Продолжительность: 01:30:13
Перевод: Дублированный- [img] -Дата мировой премьеры: 9 декабря 2011
Дата российской премьеры: 2 февраля 2012, «Каравелла DDC»
Дата выхода DVD релиза: 29 февраля 2012, «Кармен Видео»
Дата выхода BLU-RAY релиза: 7 марта 2012, «Кармен Видео»-Видеокодек: MPEG-4 AVC/H.264
Битрейт видео: ~14,1 Мбит/сек
Размер кадра: 1920x1080
Качество видео: BDRip / За исходник спасибо:
Аудиокодек: AC3 5.1
Битрейт аудио: 448 Кбит/сек-

Media info:

Общее
Уникальный идентификатор : 225396078486824958434929953714443754656 (0xA991B4A822562C199C3D1168F1419CA0)
Полное имя : H:\my films\SHRAMY_3D.mkv
Формат : Matroska
Версия формата : Version 4 / Version 2
Размер файла : 9,33 Гбайт
Продолжительность : 1 ч. 30 м.
Общий поток : 14,8 Мбит/сек
Название фильма : SHRAMY_3D_crop_over/under
Дата кодирования : UTC 2013-02-08 14:58:24
Программа кодирования : mkvmerge v6.0.0 ('Coming Up For Air') built on Jan 20 2013 09:52:00
Библиотека кодирования : libebml v1.3.0 + libmatroska v1.4.0
Видео
Идентификатор : 1
Формат : AVC
Формат/Информация : Advanced Video Codec
Профиль формата : High@L4.1
Параметр CABAC формата : Да
Параметр ReFrames формата : 4 кадра
Идентификатор кодека : V_MPEG4/ISO/AVC
Продолжительность : 1 ч. 30 м.
Битрейт : 14,1 Мбит/сек
Ширина : 1920 пикселей
Высота : 1080 пикселей
Соотношение сторон : 16:9
Режим частоты кадров : Постоянный
Частота кадров : 23,976 кадра/сек
Цветовое пространство : YUV
Субдискретизация насыщенности : 4:2:0
Битовая глубина : 8 бит
Тип развёртки : Прогрессивная
Бит/(Пиксели*Кадры) : 0.283
Размер потока : 8,86 Гбайт (95%)
Заголовок : rip by I/N
Библиотека кодирования : x264 core 128 r2216M 198a7ea
Настройки программы : cabac=1 / ref=4 / deblock=1:-3:-3 / analyse=0x3:0x133 / me=umh / subme=7 / psy=1 / psy_rd=1.00:0.10 / mixed_ref=1 / me_range=32 / chroma_me=1 / trellis=2 / 8x8dct=1 / cqm=1 / deadzone=21,11 / fast_pskip=1 / chroma_qp_offset=-3 / threads=4 / lookahead_threads=1 / sliced_threads=0 / nr=0 / decimate=1 / interlaced=0 / bluray_compat=0 / constrained_intra=0 / bframes=4 / b_pyramid=2 / b_adapt=2 / b_bias=0 / direct=2 / weightb=1 / open_gop=0 / weightp=2 / keyint=12 / keyint_min=2 / scenecut=60 / intra_refresh=0 / rc_lookahead=17 / rc=crf / mbtree=1 / crf=16.0 / qcomp=0.60 / qpmin=10 / qpmax=60 / qpstep=6 / vbv_maxrate=40000 / vbv_bufsize=30000 / crf_max=30.0 / nal_hrd=none / ip_ratio=1.40 / aq=1:0.70
Default : Да
Forced : Нет
Аудио
Идентификатор : 2
Формат : AC-3
Формат/Информация : Audio Coding 3
Расширение режима : CM (complete main)
Параметр Endianness формата : Big
Идентификатор кодека : A_AC3
Продолжительность : 1 ч. 30 м.
Вид битрейта : Постоянный
Битрейт : 448 Кбит/сек
Каналы : 6 каналов
Расположение каналов : Front: L C R, Side: L R, LFE
Частота : 48,0 КГц
Битовая глубина : 16 бит
Метод сжатия : С потерями
Размер потока : 289 Мбайт (3%)
Язык : Russian
Default : Да
Forced : Нет
Меню
00:00:00.000 : en:(01)00:00:00:000
00:06:35.853 : en:(02)00:06:35:853
00:10:04.812 : en:(03)00:10:04:812
00:14:39.253 : en:(04)00:14:39:253
00:19:37.134 : en:(05)00:19:37:134
00:26:39.097 : en:(06)00:26:39:097
00:34:44.290 : en:(07)00:34:44:290
00:40:34.640 : en:(08)00:40:34:640
00:45:53.375 : en:(09)00:45:53:375
00:50:33.488 : en:(10)00:50:33:488
00:55:55.852 : en:(11)00:55:55:852
01:00:20.908 : en:(12)01:00:20:908
01:06:07.797 : en:(13)01:06:07:797
01:12:58.248 : en:(14)01:12:58:248
01:17:00.574 : en:(15)01:17:00:574
01:21:48.236 : en:(16)01:21:48:236
01:30:13.282 : en:(17)01:30:13:282
Скриншоты:

Особенности релиза:

Справа и слева у видеоряда обрезано по 39р, что дает возможность просмотра на полный экран (без черных полос) на телевизорах с соотношением сторон 16:9 без изменения пропорций. На мой взгляд плюсы данных рипов- это более глубокое восприятие 3D-эффектов (конечно там где они есть) К минусам отнесу- вынужденное обрезание кадра по бокам. Так-что господа- выбор за вами! Всем приятного просмотра!
Проверено на встроенном плейере ТВ Samsung-D6500Время раздачи: 24/7 - круглосуточно до 15 скачавших

[Цитировать]



Показать сообщения:    

Текущее время: 20-Янв 04:45

Часовой пояс: UTC + 3


Вы не можете начинать темы
Вы не можете отвечать на сообщения
Вы не можете редактировать свои сообщения
Вы не можете удалять свои сообщения
Вы не можете голосовать в опросах
Вы не можете прикреплять файлы к сообщениям
Вы не можете скачивать файлы

!ВНИМАНИЕ!
Сайт не предоставляет электронные версии произведений, а занимается лишь коллекционированием и каталогизацией ссылок, присылаемых и публикуемых на форуме нашими читателями. Если вы являетесь правообладателем какого-либо представленного материала и не желаете, чтобы ссылка на него находилась в нашем каталоге, свяжитесь с нами, и мы незамедлительно удалим ее. Файлы для обмена на трекере предоставлены пользователями сайта, и администрация не несет ответственности за их содержание. Просьба не заливать файлы, защищенные авторскими правами, а также файлы нелегального содержания!