[ Сегодня идет свободное скачивание без начисления Download ]


Статистика раздачи
Нет
 
   
 
Top  
 
 
-Приключения маленького Геркулеса в 3D / Little Hercules in 3-D (2009) HDRip-«На 50% бог. На 50% смертный. На 100% ребенок!»- Русское название: Приключения маленького Геркулеса в 3D
Оригинальное название: Little Hercules in 3-D
Год выпуска: 2009
Жанр: Фэнтези, Семейный, ...
Описание фильма:
Великие боги Олимпа — живы! Век за веком они наблюдают за людьми, не спеша раскрывать тайну своего существования. Но вот однажды Зевс, осерчав на юного Геркулеса, решает в наказание отправить его на Землю. Пусть, дескать, поймет все тяготы человеческой жизни. И вот на молодого небожителя сваливаются все проблемы, через которые проходят современные подростки. Первая романтическая любовь, первая дискотека, первые трудности в школе и спортивных состязаниях. Калифорнийские сверстники с удивлением принимают нового одноклассника…-Режиссер: Мохамед Хашогги
Актеры: Эллиот Гулд, Робин Гивенс, Дайан Венора, Джон Хёрд, Джадд Нельсон, Марк Джон Джеффрис, Пол Уайт, Дэвид Нотон, Ричард Сандрак, Халк Хоган
Продолжительность: 01:28:05
Перевод: Дублированный- -Дата мировой премьеры: 8 октября 2009
Дата российской премьеры: 8 октября 2009, «Каропрокат»
Дата выхода DVD релиза: 19 ноября 2009, «Парадиз Медиа»-Видеокодек: MPEG-4 AVC/H.264
Битрейт видео: ~13,9 Мбит/сек
Размер кадра: 1920x1080
Качество видео: HDRip
Аудиокодек: AC3 5.1
Битрейт аудио: 448 Кбит/сек-

Media info:

Общее
Уникальный идентификатор : 211079862336879482731918678341930176272 (0x9ECC80B46E94B9E6B894EF879C63CF10)
Полное имя : H:\my films\LITTLE_HERCULES_3D.mkv
Формат : Matroska
Версия формата : Version 4 / Version 2
Размер файла : 9,04 Гбайт
Продолжительность : 1 ч. 28 м.
Общий поток : 14,7 Мбит/сек
Название фильма : LITTLE_HERCULES_3D
Дата кодирования : UTC 2013-02-09 00:51:04
Программа кодирования : mkvmerge v6.0.0 ('Coming Up For Air') built on Jan 20 2013 09:52:00
Библиотека кодирования : libebml v1.3.0 + libmatroska v1.4.0
Видео
Идентификатор : 1
Формат : AVC
Формат/Информация : Advanced Video Codec
Профиль формата : [email protected]
Параметр CABAC формата : Да
Параметр ReFrames формата : 4 кадра
Идентификатор кодека : V_MPEG4/ISO/AVC
Продолжительность : 1 ч. 28 м.
Битрейт : 13,9 Мбит/сек
Ширина : 1920 пикселей
Высота : 1080 пикселей
Соотношение сторон : 16:9
Режим частоты кадров : Постоянный
Частота кадров : 23,976 кадра/сек
Цветовое пространство : YUV
Субдискретизация насыщенности : 4:2:0
Битовая глубина : 8 бит
Тип развёртки : Прогрессивная
Бит/(Пиксели*Кадры) : 0.281
Размер потока : 8,58 Гбайт (95%)
Заголовок : rip by I/N
Библиотека кодирования : x264 core 128 r2216M 198a7ea
Настройки программы : cabac=1 / ref=4 / deblock=1:-3:-3 / analyse=0x3:0x133 / me=umh / subme=7 / psy=1 / psy_rd=1.00:0.10 / mixed_ref=1 / me_range=32 / chroma_me=1 / trellis=2 / 8x8dct=1 / cqm=1 / deadzone=21,11 / fast_pskip=1 / chroma_qp_offset=-3 / threads=4 / lookahead_threads=1 / sliced_threads=0 / nr=0 / decimate=1 / interlaced=0 / bluray_compat=0 / constrained_intra=0 / bframes=4 / b_pyramid=2 / b_adapt=2 / b_bias=0 / direct=2 / weightb=1 / open_gop=0 / weightp=2 / keyint=12 / keyint_min=2 / scenecut=60 / intra_refresh=0 / rc_lookahead=17 / rc=crf / mbtree=1 / crf=16.0 / qcomp=0.60 / qpmin=10 / qpmax=60 / qpstep=6 / vbv_maxrate=40000 / vbv_bufsize=30000 / crf_max=30.0 / nal_hrd=none / ip_ratio=1.40 / aq=1:0.70
Default : Да
Forced : Нет
Аудио
Идентификатор : 2
Формат : AC-3
Формат/Информация : Audio Coding 3
Расширение режима : CM (complete main)
Параметр Endianness формата : Big
Идентификатор кодека : A_AC3
Продолжительность : 1 ч. 28 м.
Вид битрейта : Постоянный
Битрейт : 448 Кбит/сек
Каналы : 6 каналов
Расположение каналов : Front: L C R, Side: L R, LFE
Частота : 48,0 КГц
Битовая глубина : 16 бит
Метод сжатия : С потерями
Задержка видео : 27 мс.
Размер потока : 282 Мбайт (3%)
Язык : Russian
Default : Да
Forced : Нет
Скриншоты:

Проверено на встроенном плейере ТВ Samsung-D6500Время раздачи: 24/7 - круглосуточно до 15 скачавших

[Цитировать]



Показать сообщения:    

Текущее время: 05-Дек 15:35

Часовой пояс: UTC + 3


Вы не можете начинать темы
Вы не можете отвечать на сообщения
Вы не можете редактировать свои сообщения
Вы не можете удалять свои сообщения
Вы не можете голосовать в опросах
Вы не можете прикреплять файлы к сообщениям
Вы не можете скачивать файлы

!ВНИМАНИЕ!
Сайт не предоставляет электронные версии произведений, а занимается лишь коллекционированием и каталогизацией ссылок, присылаемых и публикуемых на форуме нашими читателями. Если вы являетесь правообладателем какого-либо представленного материала и не желаете, чтобы ссылка на него находилась в нашем каталоге, свяжитесь с нами, и мы незамедлительно удалим ее. Файлы для обмена на трекере предоставлены пользователями сайта, и администрация не несет ответственности за их содержание. Просьба не заливать файлы, защищенные авторскими правами, а также файлы нелегального содержания!