[ Сегодня идет свободное скачивание без начисления Download ]


Статистика раздачи
Нет
 
   
 
Top  
 
 
-Дублёр (2012) BDRip- Оригинальное название: Дублёр
Год выпуска: 2012
Производство: Enjoy Movies [Россия]
Жанр: Комедия
Перевод: Не требуется
Субтитры: Отсутствуют
Режиссер: Евгений Абызов
Актеры: Александр Ревва, Дмитрий Хрусталев, Людмила Артемьева, Кристина Асмус, Татьяна Орлова, Ксения Буравская, Варвара Малкова, Александра Кимаева, Евгений Шиманович, Алексей Рязанцев
Описание фильма:
Главный герой нашей истории — успешный актер, звезда шоу-бизнеса Игорь Успенский. Его жизнь — сплошные съемки, концерты, презентации, корпоративы, интервью и светские тусовки. Он вынужден «крутиться» день и ночь, у него нет выходных и праздников. А его очаровательная жена и прекрасная дочка видят его в лучшем случае поздно ночью, когда он приезжает домой, чтобы поспать хотя бы пару часов. Но все труды не проходят даром. Игорь очень популярен и однажды его кандидатуру выдвигают на премию «Человек года» — теперь ему нужно еще больше времени, чтобы победить главного конкурента — певца Михаила Стасова, главные хиты которого свели с ума всех женщин России…-
Дата мировой премьеры: 10 января 2013
Дата российской премьеры: 10 января 2013, «Каропрокат»-Релиз от:
Продолжительность: 01:23:34
Качество видео: BDRip (batonchik)
Видео: MPEG4_AVC/H.264, 1280x582, ~3282 Кбит/сек, 24 fps
Аудио: Русский: AC-3, 5.1, 448 Кбит/сек, 16 бит
Главы: имеются (с Blu-Ray)-

H.264 log

--[Information] [01.02.2013 15:48:48] Standard error stream
---[NoImage] raw [info]: 1280x582p 1:1 @ 24/1 fps (cfr)
---[NoImage] x264 [info]: using SAR=1/1
---[NoImage] x264 [info]: using cpu capabilities: MMX2 SSE2Fast SSSE3 FastShuffle SSE4.2 AVX
---[NoImage] x264 [info]: profile High, level 4.1
---[NoImage]
---[NoImage] x264 [info]: frame I:1421 Avg QP:14.47 size:124332
---[NoImage] x264 [info]: frame P:28467 Avg QP:17.70 size: 37334
---[NoImage] x264 [info]: frame B:90457 Avg QP:20.41 size: 9031

---[NoImage] x264 [info]: consecutive B-frames: 2.6% 3.7% 8.4% 38.1% 10.5% 32.6% 2.5% 0.8% 0.9%
---[NoImage] x264 [info]: mb I I16..4: 12.4% 61.7% 25.9%
---[NoImage] x264 [info]: mb P I16..4: 2.9% 12.5% 2.0% P16..4: 38.0% 19.9% 15.2% 1.2% 0.5% skip: 7.9%
---[NoImage] x264 [info]: mb B I16..4: 0.4% 1.2% 0.2% B16..8: 40.9% 10.1% 2.4% direct: 5.7% skip:39.1% L0:41.2% L1:43.7% BI:15.1%
---[NoImage] x264 [info]: 8x8 transform intra:69.6% inter:65.1%
---[NoImage] x264 [info]: direct mvs spatial:96.3% temporal:3.7%
---[NoImage] x264 [info]: coded y,uvDC,uvAC intra: 73.5% 80.4% 58.9% inter: 19.8% 25.1% 6.9%
---[NoImage] x264 [info]: i16 v,h,dc,p: 51% 14% 9% 26%
---[NoImage] x264 [info]: i8 v,h,dc,ddl,ddr,vr,hd,vl,hu: 19% 11% 10% 7% 10% 12% 10% 11% 11%
---[NoImage] x264 [info]: i4 v,h,dc,ddl,ddr,vr,hd,vl,hu: 19% 11% 6% 8% 12% 13% 11% 10% 10%
---[NoImage] x264 [info]: i8c dc,h,v,p: 41% 21% 23% 15%
---[NoImage] x264 [info]: Weighted P-Frames: Y:3.1% UV:2.0%
---[NoImage] x264 [info]: ref P L0: 49.6% 11.9% 17.6% 6.6% 5.2% 3.7% 3.2% 2.1% 0.2% 0.0%
---[NoImage] x264 [info]: ref B L0: 77.8% 10.7% 5.3% 2.6% 2.1% 1.0% 0.5%
---[NoImage] x264 [info]: ref B L1: 93.5% 6.5%
---[NoImage] x264 [info]: kb/s:3280.77
---[NoImage] encoded 120345 frames, 15.10 fps, 3280.77 kb/s
--[Information] Final statistics
---[Information] [01.02.2013 15:48:48] Video Bitrate Desired: 3282 kbit/s
---[Information] [01.02.2013 15:48:48] Video Bitrate Obtained (approximate): 3282 kbit/s

MediaInfo 0.7.61

Общее
Уникальный идентификатор : 242868412753132548421530130151151860887 (0xB6B6C13EF1C5BD6BB9CEA54792157C97)
Полное имя :\Дублёр.2012.BDRip.720p.NNM-CLUB.mkv
Формат : Matroska
Версия формата : Version 4 / Version 2
Размер файла : 2,18 Гбайт
Продолжительность : 1 ч. 23 м.
Общий поток : 3731 Кбит/сек
Название фильма : Дублёр.2012.BDRip.720p.NNM-CLUB
Дата кодирования : UTC 2013-02-01 11:53:05
Программа кодирования : mkvmerge v6.0.0 ('Coming Up For Air') built on Jan 20 2013 09:52:00
Библиотека кодирования : libebml v1.3.0 + libmatroska v1.4.0
Видео
Идентификатор : 1
Формат : AVC
Формат/Информация : Advanced Video Codec
Профиль формата : High@L4.1
Параметр CABAC формата : Да
Параметр ReFrames формата : 8 кадров
Идентификатор кодека : V_MPEG4/ISO/AVC
Продолжительность : 1 ч. 23 м.
Битрейт : 3282 Кбит/сек
Ширина : 1280 пикселей
Высота : 582 пикселя
Соотношение сторон : 2,2:1
Режим частоты кадров : Постоянный
Частота кадров : 24,000 кадра/сек
Цветовое пространство : YUV
Субдискретизация насыщенности : 4:2:0
Битовая глубина : 8 бит
Тип развёртки : Прогрессивная
Бит/(Пиксели*Кадры) : 0.184
Размер потока : 1,87 Гбайт (86%)
Заголовок : Дублёр.2012.BDRip.720p.NNM-CLUB
Библиотека кодирования : x264 core 129 r2230 1cffe9f
Настройки программы : cabac=1 / ref=8 / deblock=1:-3:-3 / analyse=0x3:0x133 / me=umh / subme=10 / psy=1 / psy_rd=1.00:0.15 / mixed_ref=1 / me_range=24 / chroma_me=1 / trellis=2 / 8x8dct=1 / cqm=0 / deadzone=21,11 / fast_pskip=0 / chroma_qp_offset=-3 / threads=12 / lookahead_threads=2 / sliced_threads=0 / nr=0 / decimate=1 / interlaced=0 / bluray_compat=0 / constrained_intra=0 / bframes=8 / b_pyramid=2 / b_adapt=2 / b_bias=0 / direct=3 / weightb=0 / open_gop=0 / weightp=2 / keyint=240 / keyint_min=22 / scenecut=40 / intra_refresh=0 / rc_lookahead=50 / rc=2pass / mbtree=1 / bitrate=3282 / ratetol=1.0 / qcomp=0.60 / qpmin=0 / qpmax=69 / qpstep=4 / cplxblur=20.0 / qblur=0.5 / ip_ratio=1.40 / aq=1:1.00
Язык : English
Default : Да
Forced : Нет
Аудио
Идентификатор : 2
Формат : AC-3
Формат/Информация : Audio Coding 3
Расширение режима : CM (complete main)
Параметр Endianness формата : Big
Идентификатор кодека : A_AC3
Продолжительность : 1 ч. 23 м.
Вид битрейта : Постоянный
Битрейт : 448 Кбит/сек
Каналы : 6 каналов
Расположение каналов : Front: L C R, Side: L R, LFE
Частота : 48,0 КГц
Битовая глубина : 16 бит
Метод сжатия : С потерями
Размер потока : 268 Мбайт (12%)
Заголовок : AC-3
Язык : Russian
Default : Да
Forced : Нет
Меню
00:00:00.000 : ru:Chapter 01
00:06:00.375 : ru:Chapter 02
00:13:55.833 : ru:Chapter 03
00:22:29.875 : ru:Chapter 04
00:27:09.666 : ru:Chapter 05
00:36:01.041 : ru:Chapter 06
00:42:06.666 : ru:Chapter 07
00:50:57.041 : ru:Chapter 08
01:00:46.458 : ru:Chapter 09
01:05:38.166 : ru:Chapter 10
01:10:03.708 : ru:Chapter 11
01:20:13.291 : ru:Chapter 12
Скриншоты:




Время раздачи: круглогодичноИграю на аккордеоне за "Спасибо"

[Цитировать]

Топик был перенесен из форума Новинки кинопроката в форум Комедия
Henkok



Показать сообщения:    

Текущее время: 02-Дек 22:55

Часовой пояс: UTC + 3


Вы не можете начинать темы
Вы не можете отвечать на сообщения
Вы не можете редактировать свои сообщения
Вы не можете удалять свои сообщения
Вы не можете голосовать в опросах
Вы не можете прикреплять файлы к сообщениям
Вы не можете скачивать файлы

!ВНИМАНИЕ!
Сайт не предоставляет электронные версии произведений, а занимается лишь коллекционированием и каталогизацией ссылок, присылаемых и публикуемых на форуме нашими читателями. Если вы являетесь правообладателем какого-либо представленного материала и не желаете, чтобы ссылка на него находилась в нашем каталоге, свяжитесь с нами, и мы незамедлительно удалим ее. Файлы для обмена на трекере предоставлены пользователями сайта, и администрация не несет ответственности за их содержание. Просьба не заливать файлы, защищенные авторскими правами, а также файлы нелегального содержания!