[ Сегодня идет свободное скачивание без начисления Download ]


Статистика раздачи
Нет
 
   
 
Top  
 
 
-Джунгли (2012) DVDRip
«Любовь - это война!»
- Русское название: Джунгли
Год выпуска: 2012
Производство: Россия | Кинокомпания CTB
Жанр: Мелодрама, Комедия, Приключения
Перевод: Не требуется (русский) [Лицензия]
Субтитры: Отсутствуют-Дата мировой премьеры: 29 ноября 2012
Дата российской премьеры: 29 ноября 2012, «Наше Кино»
Дата выхода DVD релиза: 18 декабря 2012, «Lizard Cinema Trade»
Дата выхода Blu-Ray релиза: 15 января 2013, «Lizard Cinema Trade»-Режиссер: Александр Войтинский-Продюсер: Сергей Сельянов, Александр Войтинский, Михаил Врубель-Актеры: Сергей Светлаков, Вера Брежнева, Александр Макогон, Александр Половцев, Марина Дюжева, Михаил Ефремов, Ирина Медведева, Андрей Гаврилов-Описание фильма:
У Сергея и Марины в семейной жизни наступил кризис. Во время одной из ссор, они решают поехать в экзотическое путешествие. Всю дорогу между супругами не утихают ссоры, которые в конце концов приводят к тому, что они оказываются на необитаемом острове, затерянном в океане. Вместо того чтобы вместе бороться за выживание, наши герои продолжают выяснять отношения, постепенно переходя к настоящим боевым действиям. В довершение несчастий оказывается, что остров населен племенем воинствующих туземцев.-
Продолжительность: 01:20:02
Качество видео: DVDRip
Видеокодек: MPEG-4 AVC/H.264
Битрейт видео: ~2154 Kbps 25.00 fps
Размер кадра: [email protected] (2.370) at 25.000 fps : 0.277 Bits/Pixel
Аудиокодек: AC3 5.1
Битрейт аудио: 448 Кбит/сек, 48,0 КГц, 16 бит

MediaInfo:

Полное имя                               : G:\000 DVD+BD\Джунгли  2012  DVDRip (AVC)\Djungli.2012.DVDRip_H264.NNM-CLUB.mkv
Формат                                   : Matroska
Версия формата                           : Version 2
Размер файла                             : 1,45 Гбайт
Продолжительность                        : 1 ч. 20 м.
Общий поток                              : 2601 Кбит/сек
Название фильма                          : -=NNM-CLUB.RU=-
Дата кодирования                         : UTC 2012-12-14 06:04:42
Программа кодирования                    : mkvmerge v5.0.1 ('Es ist Sommer') built on Oct 24 2011 19:45:06
Библиотека кодирования                   : libebml v1.2.2 + libmatroska v1.3.0
Видео
Идентификатор                            : 1
Формат                                   : AVC
Формат/Информация                        : Advanced Video Codec
Профиль формата                          : [url=mailto:[email protected]][email protected][/url]
Параметр CABAC формата                   : Да
Параметр ReFrames формата                : 11 кадров
Режим смешивания                         : Header stripping
Идентификатор кодека                     : V_MPEG4/ISO/AVC
Продолжительность                        : 1 ч. 20 м.
Битрейт                                  : 2154 Кбит/сек
Ширина                                   : 720 пикселей
Высота                                   : 432 пикселя
Соотношение сторон                       : 2,40:1
Режим частоты кадров                     : Постоянный
Частота кадров                           : 25,000 кадров/сек
Цветовое пространство                    : YUV
Субдискретизация насыщенности            : 4:2:0
Битовая глубина                          : 8 бит
Тип развёртки                            : Прогрессивная
Бит/(Пиксели*Кадры)                      : 0.277
Размер потока                            : 1,17 Гбайт (81%)
Заголовок                                : Djungli.2012.DVDRip.H264.NNM-CLUB
Библиотека кодирования                   : x264 core 119 r2106 07efeb4
Настройки программы                      : cabac=1 / ref=11 / deblock=1:-2:-1 / analyse=0x3:0x113 / me=umh / subme=9 / psy=1 / psy_rd=1.00:0.20 / mixed_ref=1 / me_range=32 / chroma_me=1 / trellis=1 / 8x8dct=1 / cqm=0 / deadzone=21,11 / fast_pskip=0 / chroma_qp_offset=-3 / threads=3 / sliced_threads=0 / nr=0 / decimate=0 / interlaced=0 / bluray_compat=0 / constrained_intra=0 / bframes=8 / b_pyramid=2 / b_adapt=2 / b_bias=0 / direct=3 / weightb=1 / open_gop=0 / weightp=2 / keyint=250 / keyint_min=25 / scenecut=40 / intra_refresh=0 / rc_lookahead=60 / rc=2pass / mbtree=1 / bitrate=2154 / ratetol=1.0 / qcomp=0.60 / qpmin=0 / qpmax=69 / qpstep=4 / cplxblur=20.0 / qblur=0.5 / ip_ratio=1.40 / aq=1:1.00
Default                                  : Да
Forced                                   : Нет
Аудио
Идентификатор                            : 2
Формат                                   : AC-3
Формат/Информация                        : Audio Coding 3
Расширение режима                        : CM (complete main)
Параметр Endianness формата              : Big
Режим смешивания                         : Header stripping
Идентификатор кодека                     : A_AC3
Продолжительность                        : 1 ч. 20 м.
Вид битрейта                             : Постоянный
Битрейт                                  : 448 Кбит/сек
Каналы                                   : 6 каналов
Расположение каналов                     : Front: L C R, Side: L R, LFE
Частота                                  : 48,0 КГц
Битовая глубина                          : 16 бит
Метод сжатия                             : С потерями
Размер потока                            : 256 Мбайт (17%)
Заголовок                                : AC3.448.Kbps (6ch) Russian
Язык                                     : Russian
Default                                  : Да
Forced                                   : Нет
Скриншоты:




Время раздачи: 24/7 (до 10 скачавших)

[Цитировать]

Топик был перенесен из форума Новинки кинопроката в форум Мелодрама
Henkok

Топик был перенесен из форума Мелодрама в форум Комедия
Henkok



Показать сообщения:    

Текущее время: 04-Дек 17:21

Часовой пояс: UTC + 3


Вы не можете начинать темы
Вы не можете отвечать на сообщения
Вы не можете редактировать свои сообщения
Вы не можете удалять свои сообщения
Вы не можете голосовать в опросах
Вы не можете прикреплять файлы к сообщениям
Вы не можете скачивать файлы

!ВНИМАНИЕ!
Сайт не предоставляет электронные версии произведений, а занимается лишь коллекционированием и каталогизацией ссылок, присылаемых и публикуемых на форуме нашими читателями. Если вы являетесь правообладателем какого-либо представленного материала и не желаете, чтобы ссылка на него находилась в нашем каталоге, свяжитесь с нами, и мы незамедлительно удалим ее. Файлы для обмена на трекере предоставлены пользователями сайта, и администрация не несет ответственности за их содержание. Просьба не заливать файлы, защищенные авторскими правами, а также файлы нелегального содержания!