[ Сегодня идет свободное скачивание без начисления Download ]


Статистика раздачи
Нет
 
   
 
Top  
 
 
-Соловей-Разбойник (2012) HDRip-«Здесь граблю только я!»- Русское название: Соловей-Разбойник
Год выпуска: 2012
Производство: Россия | Studio Ortodoks
Жанр: боевик, комедия, криминал
Дата мировой премьеры: 22 ноября 2012
Дата российской премьеры: 22 ноября 2012, «Парадиз»
Дата выхода DVD релиза: 18 декабря 2012, «Парадиз Медиа»
Дата выхода Blu-Ray релиза: 18 декабря 2012, «Парадиз Медиа»
Режиссер: Егор Баранов
Продюсер: Любовь Калинская, Виктор Алисов, Геннадий Меркулов
Актеры: Иван Охлобыстин, Евгений Стычкин, Оксана Фандера, Игорь Жижикин, Сергей Бадюк, Александр Стриженов, Павел Прилучный, Мария Голубкина, Александр Сухинин, Михаил Горевой
Описание фильма:
История о дерзком романтике Соловьёве Севастьяне Григорьевиче, cтупившем по зову крови на лихую стезю русского разбоя. И пока спецслужбы во главе с секретным агентом Н7 пытаются ликвидировать банду Соловья-Разбойника, он, со свойственным ему драйвом и озорством, восстанавливает в родном краю справедливость. Но рано или поздно любой «сказке» приходит конец….

Продолжительность: 01:31:39
Качество видео: HDRip
Видеокодек: Xvid
Битрейт видео: ~927 Kbit/s
Размер кадра: 640x272
Аудиокодек: МР3 2.0
Битрейт аудио: 128 Kbit/s-

MI

Общее
Полное имя                               : E:\Загрузка\Solovej.Razbojnik.2012.O.HDRip.700MB.avi
Формат                                   : AVI
Формат/Информация                        : Audio Video Interleave
Размер файла                             : 698 Мбайт
Продолжительность                        : 1 ч. 31 м.
Общий поток                              : 1065 Кбит/сек
Программа кодирования                    : VirtualDubMod 1.5.10.2 (build 2540/release)
Библиотека кодирования                   : VirtualDubMod build 2540/release
Видео
Идентификатор                            : 0
Формат                                   : MPEG-4 Visual
Профиль формата                          : Advanced Simple@L5
Параметр BVOP формата                    : 2
Параметр QPel формата                    : Нет
Параметр GMC формата                     : Без точки перехода
Параметр матрицы формата                 : Выборочная
Идентификатор кодека                     : XVID
Идентификатор кодека/Подсказка           : XviD
Продолжительность                        : 1 ч. 31 м.
Битрейт                                  : 927 Кбит/сек
Ширина                                   : 640 пикселей
Высота                                   : 272 пикселя
Соотношение сторон                       : 2,35:1
Частота кадров                           : 24,000 кадра/сек
Цветовое пространство                    : YUV
Субдискретизация насыщенности            : 4:2:0
Битовая глубина                          : 8 бит
Тип развёртки                            : Прогрессивная
Метод сжатия                             : С потерями
Бит/(Пиксели*Кадры)                      : 0.222
Размер потока                            : 608 Мбайт (87%)
Библиотека кодирования                   : XviD 64
Аудио
Идентификатор                            : 1
Формат                                   : MPEG Audio
Версия формата                           : Version 1
Профиль формата                          : Layer 3
Идентификатор кодека                     : 55
Идентификатор кодека/Подсказка           : MP3
Продолжительность                        : 1 ч. 31 м.
Вид битрейта                             : Постоянный
Битрейт                                  : 128 Кбит/сек
Каналы                                   : 2 канала
Частота                                  : 48,0 КГц
Метод сжатия                             : С потерями
Размер потока                            : 83,9 Мбайт (12%)
Выравнивание                             : Соединение по промежуткам
Продолжительность промежутка             : 42  мс. (1,00 видеокадр)
Время предзагрузки промежутка            : 504  мс.
Библиотека кодирования                   : L3.99r
Настройки программы                      : -m s -V 4 -q 2 -lowpass 17 -b 128
-Cкриншоты из фильма:
-Приятного просмотра
и не забываем говорить СПАСИБО...
Время раздачи: 24/7,
до 15 скачавших...

[Цитировать]

тестовый комментарий

[Цитировать]

Топик был перенесен из форума Новинки кинопроката в форум Боевик
Henkok



Показать сообщения:    

Текущее время: 26-Мар 07:39

Часовой пояс: UTC + 6


Вы не можете начинать темы
Вы не можете отвечать на сообщения
Вы не можете редактировать свои сообщения
Вы не можете удалять свои сообщения
Вы не можете голосовать в опросах
Вы не можете прикреплять файлы к сообщениям
Вы не можете скачивать файлы

!ВНИМАНИЕ!
Сайт не предоставляет электронные версии произведений, а занимается лишь коллекционированием и каталогизацией ссылок, присылаемых и публикуемых на форуме нашими читателями. Если вы являетесь правообладателем какого-либо представленного материала и не желаете, чтобы ссылка на него находилась в нашем каталоге, свяжитесь с нами, и мы незамедлительно удалим ее. Файлы для обмена на трекере предоставлены пользователями сайта, и администрация не несет ответственности за их содержание. Просьба не заливать файлы, защищенные авторскими правами, а также файлы нелегального содержания!