[ Сегодня идет свободное скачивание без начисления Download ]


Статистика раздачи
Нет
 
   
 
Top  
 
 
Соломенные псы / Straw Dogs«У каждого есть предел.»
Год выпуска: 2011
Страна: США
Производство: Screen Gems
Жанр: триллер, драма, криминал
Режиссер: Род Лури
В ролях: Джеймс Марсден (David Sumner), Кейт Босворт (Amy Sumner), Александр Скарсгард (Charlie), Джеймс Вудс (Tom Heddon), Доминик Пурселл (Jeremy Niles), Риз Койро (Norman), Билли Луш (Chris), Лас Алонсо (John Burke), Уилла Холлэнд (Janice Heddon), Уолтон Гоггинс (Daniel Niles), Энсон Маунт (Coach Milkens), Дрю Пауэлл (Bic)
Перевод: Профессиональный (полное дублирование)
Субтитры: Русские (Full), украинские (Full), английские (Full)
Описание: Лос-анджелесский журналист вместе с женой переезжает на Юг, где и без того трещащий по швам брак становится причиной форменной катастрофы: селяне третируют новичков, провоцируя насилие.
[kp]426001[/kp] [imdb]tt0999913[/imdb]
Релиз от:
Качество: BDRip 720p
Продолжительность: 01:49:43
Формат: MKV
Видео кодек: AVC High@L4.1
Аудио кодек: AC3, DTS
Видео: 1280x534 (2.40:1) at 23.976 fps, x264, ~5589 kbps avg, 0.341 bit/pixel
Аудио: Russian: 48 kHz, AC3, 3/2 (L,C,R,l,r) + LFE ch, ~384 kbps avg |Дубляж, R5|
Аудио #2: English: 48 kHz, DTS, 3/2 (L,C,R,l,r) + LFE ch, ~1536 kbps avg
Главы: Есть

Media Info

General
Unique ID : 209797176234394893508699440804145058178 (0x9DD57765B696449D98181A12390AD182)
Complete name : Соломенные псы__Straw Dogs [2011.BDRip.720p.Dub.Eng.Subs]-HQFans.mkv
Format : Matroska
Format version : Version 2
File size : 5.74 GiB
Duration : 1h 49mn
Overall bit rate : 7 483 Kbps
Movie name : Соломенные псы [2011, BDRip/720p] || ZUNE@HQFans
Encoded date : UTC 2011-12-05 09:35:32
Writing application : mkvmerge v5.1.0 ('And so it goes') built on Nov 28 2011 23:58:28
Writing library : libebml v1.2.3 + libmatroska v1.3.0
Attachment : Yes
Video
ID : 1
Format : AVC
Format/Info : Advanced Video Codec
Format profile : High@L4.1
Format settings, CABAC : Yes
Format settings, ReFrames : 12 frames
Codec ID : V_MPEG4/ISO/AVC
Duration : 1h 49mn
Bit rate : 5 589 Kbps
Width : 1 280 pixels
Height : 534 pixels
Display aspect ratio : 2.40:1
Frame rate : 23.976 fps
Color space : YUV
Chroma subsampling : 4:2:0
Bit depth : 8 bits
Scan type : Progressive
Bits/(Pixel*Frame) : 0.341
Stream size : 4.17 GiB (73%)
Title : Соломенные псы [2011, BDRip/720p] || ZUNE@HQFans
Writing library : x264 core 119 r2106 07efeb4
Encoding settings : cabac=1 / ref=12 / deblock=1:-3:-3 / analyse=0x3:0x113 / me=umh / subme=11 / psy=1 / psy_rd=1.00:0.15 / mixed_ref=1 / me_range=32 / chroma_me=1 / trellis=2 / 8x8dct=1 / cqm=0 / deadzone=21,11 / fast_pskip=0 / chroma_qp_offset=-3 / threads=12 / sliced_threads=0 / nr=0 / decimate=0 / interlaced=0 / bluray_compat=0 / constrained_intra=0 / bframes=10 / b_pyramid=2 / b_adapt=2 / b_bias=0 / direct=3 / weightb=1 / open_gop=0 / weightp=2 / keyint=240 / keyint_min=23 / scenecut=40 / intra_refresh=0 / rc_lookahead=40 / rc=2pass / mbtree=0 / bitrate=5589 / ratetol=1.0 / qcomp=0.60 / qpmin=0 / qpmax=69 / qpstep=4 / cplxblur=20.0 / qblur=0.5 / vbv_maxrate=40000 / vbv_bufsize=30000 / nal_hrd=none / ip_ratio=1.40 / pb_ratio=1.30 / aq=1:0.80 / zones=150000,157847,q=30
Language : English
Color primaries : BT.709-5, BT.1361, IEC 61966-2-4, SMPTE RP177
Transfer characteristics : BT.709-5, BT.1361
Matrix coefficients : BT.709-5, BT.1361, IEC 61966-2-4 709, SMPTE RP177
Audio #1
ID : 2
Format : AC-3
Format/Info : Audio Coding 3
Mode extension : CM (complete main)
Codec ID : A_AC3
Duration : 1h 49mn
Bit rate mode : Constant
Bit rate : 384 Kbps
Channel(s) : 6 channels
Channel positions : Front: L C R, Side: L R, LFE
Sampling rate : 48.0 KHz
Bit depth : 16 bits
Compression mode : Lossy
Stream size : 301 MiB (5%)
Title : Dub {R5} [AC3 5.1@384kbps]
Language : Russian
Audio #2
ID : 3
Format : DTS
Format/Info : Digital Theater Systems
Codec ID : A_DTS
Duration : 1h 49mn
Bit rate mode : Constant
Bit rate : 1 510 Kbps
Channel(s) : 6 channels
Channel positions : Front: L C R, Side: L R, LFE
Sampling rate : 48.0 KHz
Bit depth : 16 bits
Compression mode : Lossy
Stream size : 1.16 GiB (20%)
Title : Original [DTS 5.1@1536kbps/16-bit]
Language : English
Text #1
ID : 4
Format : UTF-8
Codec ID : S_TEXT/UTF8
Codec ID/Info : UTF-8 Plain Text
Title : Full
Language : Russian
Text #2
ID : 5
Format : UTF-8
Codec ID : S_TEXT/UTF8
Codec ID/Info : UTF-8 Plain Text
Title : Full
Language : Ukrainian
Text #3
ID : 6
Format : UTF-8
Codec ID : S_TEXT/UTF8
Codec ID/Info : UTF-8 Plain Text
Title : Full
Language : English
Menu
00:00:00.000 : en:Chapter 1
00:09:51.674 : en:Chapter 2
00:15:05.988 : en:Chapter 3
00:21:54.563 : en:Chapter 4
00:27:53.130 : en:Chapter 5
00:35:26.916 : en:Chapter 6
00:43:26.187 : en:Chapter 7
00:47:38.105 : en:Chapter 8
00:54:21.925 : en:Chapter 9
00:58:04.564 : en:Chapter 10
01:05:47.777 : en:Chapter 11
01:12:08.157 : en:Chapter 12
01:19:26.553 : en:Chapter 13
01:25:03.390 : en:Chapter 14
01:29:27.988 : en:Chapter 15
01:37:12.035 : en:Chapter 16
-[th]http://torrentsclub.org/pictures/5383abeb61b1a5e2da...cb3eadd.png[/th] [th]http://torrentsclub.org/pictures/f13103a2312043194e...15cdb0a.png[/th] [th]http://torrentsclub.org/pictures/87938cbb7ea4282272...e777e71.png[/th]-

[Цитировать]



Показать сообщения:    

Текущее время: 24-Июн 11:22

Часовой пояс: UTC + 6


Вы не можете начинать темы
Вы не можете отвечать на сообщения
Вы не можете редактировать свои сообщения
Вы не можете удалять свои сообщения
Вы не можете голосовать в опросах
Вы не можете прикреплять файлы к сообщениям
Вы не можете скачивать файлы

!ВНИМАНИЕ!
Сайт не предоставляет электронные версии произведений, а занимается лишь коллекционированием и каталогизацией ссылок, присылаемых и публикуемых на форуме нашими читателями. Если вы являетесь правообладателем какого-либо представленного материала и не желаете, чтобы ссылка на него находилась в нашем каталоге, свяжитесь с нами, и мы незамедлительно удалим ее. Файлы для обмена на трекере предоставлены пользователями сайта, и администрация не несет ответственности за их содержание. Просьба не заливать файлы, защищенные авторскими правами, а также файлы нелегального содержания!