[ Сегодня идет свободное скачивание без начисления Download ]


Статистика раздачи
Нет
 
   
 
Top  
 
 
-Три богатыря на дальних берегах (2012) BDRip -Русское название: Три богатыря на дальних берегах
Год выпуска: 2012
Производство: Россия
Жанр: Приключения, Семейный
Перевод: Не требуется
Cубтитры: нет-Дата мировой премьеры: 27 декабря 2012
Дата российской премьеры: 27 декабря 2012, «Наше Кино»
Дата выхода DVD релиза: 22 января 2013, «Lizard Cinema Trade»-Режиссер: Константин Феоктистов
Роли озвучивали: Сергей Маковецкий, Елизавета Боярская, Фёдор Бондарчук, Дмитрий Быковский, Елена Шульман, Олег Куликович, Лия Медведева, Мария Цветкова, Дмитрий Высоцкий, Анатолий Петров, Наталья Данилова-Описание фильма:
Очередное путешествие таит в себе не только новые опасности, но и новые земли. Герои держат путь далеко от дома и как всегда с благородной целью — помочь людям. Кому, зачем и как? Не по-богатырски это — в раздумья пускаться, когда время поджимает и нужно действовать! Правда, помощь иной раз оказывается хуже татарской орды, но богатыри не отчаиваются, тем более что у них много верных помощников. Ради спасения своих друзей, героям придется подчас идти на очень решительные шаги, жертвовать собой и не думать, что ждет их впереди. Но, как известно, удача любит смелых и отважных.- -Релиз от: --Продолжительность: 01:11:18
Качество видео: BDRip |исходник: Blu-ray|
Видео: 656x368 (16:9), 25 fps, XviD 65 ~1323 kbps avg, 0.229 bit/pixel
Аудио: 48 kHz, MP3, 2 ch, ~128.00 kbps Constant
Скачать: Сэмпл

MediaInfo

General
Complete name : Tri.bogatyrya na.dalnikh.beregakh.2012.O.BDRip.745MB_by_Yarmak23.avi
Format : AVI
Format/Info : Audio Video Interleave
File size : 745 MiB
Duration : 1h 11mn
Overall bit rate : 1 461 Kbps
Writing application : VirtualDubMod 1.5.10.2 (build 2540/release)
Writing library : VirtualDubMod build 2540/release
Video
ID : 0
Format : MPEG-4 Visual
Format profile : Advanced Simple@L5
Format settings, BVOP : 1
Format settings, QPel : No
Format settings, GMC : No warppoints
Format settings, Matrix : Custom
Codec ID : XVID
Codec ID/Hint : XviD
Duration : 1h 11mn
Bit rate : 1 323 Kbps
Width : 656 pixels
Height : 368 pixels
Display aspect ratio : 16:9
Frame rate : 23.976 fps
Color space : YUV
Chroma subsampling : 4:2:0
Bit depth : 8 bits
Scan type : Progressive
Compression mode : Lossy
Bits/(Pixel*Frame) : 0.229
Stream size : 675 MiB (91%)
Writing library : XviD 65
Audio
ID : 1
Format : MPEG Audio
Format version : Version 1
Format profile : Layer 3
Codec ID : 55
Codec ID/Hint : MP3
Duration : 1h 11mn
Bit rate mode : Constant
Bit rate : 128 Kbps
Channel(s) : 2 channels
Sampling rate : 48.0 KHz
Compression mode : Lossy
Stream size : 65.3 MiB (9%)
Alignment : Aligned on interleaves
Interleave, duration : 42 ms (1.00 video frame)
Interleave, preload duration : 504 ms
Writing library : LAME3.99r
Encoding settings : -m s -V 4 -q 2 -lowpass 17 -b 128
Скриншоты:
-Три богатыря на дальних берегах на nnm-club-Время раздачи: 24/7 (до 7 скачавших)

[Цитировать]

Топик был перенесен из форума Новинки кинопроката в форум Отечественные мультфильмы
Henkok



Показать сообщения:    

Текущее время: 11-Дек 01:26

Часовой пояс: UTC + 3


Вы не можете начинать темы
Вы не можете отвечать на сообщения
Вы не можете редактировать свои сообщения
Вы не можете удалять свои сообщения
Вы не можете голосовать в опросах
Вы не можете прикреплять файлы к сообщениям
Вы не можете скачивать файлы

!ВНИМАНИЕ!
Сайт не предоставляет электронные версии произведений, а занимается лишь коллекционированием и каталогизацией ссылок, присылаемых и публикуемых на форуме нашими читателями. Если вы являетесь правообладателем какого-либо представленного материала и не желаете, чтобы ссылка на него находилась в нашем каталоге, свяжитесь с нами, и мы незамедлительно удалим ее. Файлы для обмена на трекере предоставлены пользователями сайта, и администрация не несет ответственности за их содержание. Просьба не заливать файлы, защищенные авторскими правами, а также файлы нелегального содержания!