[ Сегодня идет свободное скачивание без начисления Download ]


Статистика раздачи
Нет
 
   
 
Top  
 
 
-Три богатыря на дальних берегах (2012) [720p] BDRip- Оригинальное название: Три богатыря на дальних берегах
Год выпуска: 2012
Производство: Россия, Кинокомпания СТВ, Студия Мельница
Жанр: Мультфильм, приключения, семейный
Режиссер: Константин Феоктистов
Персонажи: Дмитрий Быковский-Ромашов (Илья Муромец, озвучка), Валерий Соловьев (Добрыня Никитич, озвучка), Олег Куликович (Алеша Попович, озвучка), Сергей Маковецкий (князь Киевский, озвучка), Дмитрий Высоцкий (конь Юлий, озвучка), Фёдор Бондарчук (барон Курдюк, озвучка), Елизавета Боярская (Баба Яга, озвучка), Мария Цветкова-Овсянникова (Алёнушка, озвучка), Елена Шульман (Настасья, озвучка), Лия Медведева (Любава, озвучка), Анатолий Петров (Тихон / Бекет, озвучка), Наталья Данилова (бабка, озвучка)
Описание: На этот раз Алеша Попович, Добрыня Никитич и Илья Муромец, благодаря козням коварной Бабы Яги, оказываются за семью морями на острове, на котором живут туземцы и страшный Гомума. В их отсутствие купец Колыван решают вместе с Бабой-Ягой захватить царство и забрать власть у князя Киевского. На помощь незадачливому правителю приходит конь Юлий, а также жены богатырей и их многочисленные родственники. Словом, богатырей и зрителей ждут приключения на дальних берегах, обыкновенные и невероятные.-
Дата мировой премьеры: 27 декабря 2012
Дата российской премьеры: 27 декабря 2012
Дата выхода DVD релиза: 22 января 2013
Релиз на Blu-Ray: 31 января 2013, «Lizard Cinema Trade»-Продолжительность: 01:11:18
Перевод: Не требуется (русский)
Субтитры: Отсутствуют
Качество видео: BDRip
Видеокодек: MPEG-4 AVC
Битрейт видео: ~ 3472 Кбит/сек
Размер кадра: 1280x720
Аудио: Русский: AC-3 / 5.1 / 640 Кбит/с -Главы: есть (с Blu-Ray)

H.264 log

--[Information] [30.01.2013 18:55:25] Standard error stream
---[NoImage] raw [info]: 1280x720p 1:1 @ 24000/1001 fps (cfr)
---[NoImage] x264 [info]: using SAR=1/1
---[NoImage] x264 [info]: using cpu capabilities: MMX2 SSE2Fast SSSE3 FastShuffle SSE4.2 AVX
---[NoImage] x264 [info]: profile High, level 4.1
---[NoImage]
---[NoImage] x264 [info]: frame I:1211 Avg QP: 7.01 size:299482
---[NoImage] x264 [info]: frame P:27809 Avg QP:12.48 size: 36442
---[NoImage] x264 [info]: frame B:73554 Avg QP:17.04 size: 6531

---[NoImage] x264 [info]: consecutive B-frames: 4.7% 4.9% 13.2% 43.2% 16.0% 11.5% 2.1% 1.5% 2.9%
---[NoImage] x264 [info]: mb I I16..4: 31.8% 22.3% 45.9%
---[NoImage] x264 [info]: mb P I16..4: 2.4% 3.5% 3.0% P16..4: 19.4% 7.1% 10.8% 1.7% 1.0% skip:51.2%
---[NoImage] x264 [info]: mb B I16..4: 0.2% 0.3% 0.3% B16..8: 15.5% 4.6% 2.3% direct: 1.7% skip:75.2% L0:47.6% L1:43.4% BI: 9.0%
---[NoImage] x264 [info]: 8x8 transform intra:34.5% inter:24.2%
---[NoImage] x264 [info]: direct mvs spatial:95.2% temporal:4.8%
---[NoImage] x264 [info]: coded y,uvDC,uvAC intra: 76.4% 75.9% 71.0% inter: 8.0% 8.3% 6.0%
---[NoImage] x264 [info]: i16 v,h,dc,p: 47% 13% 29% 11%
---[NoImage] x264 [info]: i8 v,h,dc,ddl,ddr,vr,hd,vl,hu: 14% 20% 23% 6% 6% 6% 7% 8% 11%
---[NoImage] x264 [info]: i4 v,h,dc,ddl,ddr,vr,hd,vl,hu: 14% 14% 12% 9% 10% 10% 10% 9% 12%
---[NoImage] x264 [info]: i8c dc,h,v,p: 54% 24% 15% 7%
---[NoImage] x264 [info]: Weighted P-Frames: Y:1.5% UV:1.1%
---[NoImage] x264 [info]: ref P L0: 55.2% 4.3% 15.7% 8.3% 5.3% 4.5% 3.2% 2.8% 0.8% 0.0%
---[NoImage] x264 [info]: ref B L0: 71.5% 12.8% 7.2% 3.3% 2.7% 1.5% 0.9%
---[NoImage] x264 [info]: ref B L1: 92.1% 7.9%
---[NoImage] x264 [info]: kb/s:3471.56
---[NoImage] encoded 102574 frames, 18.65 fps, 3471.56 kb/s
--[Information] Final statistics
---[Information] [30.01.2013 18:55:25] Video Bitrate Desired: 3472 kbit/s
---[Information] [30.01.2013 18:55:25] Video Bitrate Obtained (approximate): 3473 kbit/s

MediaInfo 0.7.61

Общее
Уникальный идентификатор : 252084142248670781161898881692403789484 (0xBDA5A3CA56A00F5CAB0A7FAB14D86EAC)
Полное имя :\Три богатыря на дальних берегах.2012. BDRip.720p.NNM-CLUB.mkv
Формат : Matroska
Версия формата : Version 4 / Version 2
Размер файла : 2,05 Гбайт
Продолжительность : 1 ч. 11 м.
Общий поток : 4113 Кбит/сек
Название фильма : Три богатыря на дальних берегах.2012. BDRip.720p.NNM-CLUB
Дата кодирования : UTC 2013-01-30 15:32:44
Программа кодирования : mkvmerge v6.0.0 ('Coming Up For Air') built on Jan 20 2013 09:52:00
Библиотека кодирования : libebml v1.3.0 + libmatroska v1.4.0
Видео
Идентификатор : 1
Формат : AVC
Формат/Информация : Advanced Video Codec
Профиль формата : High@L4.1
Параметр CABAC формата : Да
Параметр ReFrames формата : 8 кадров
Идентификатор кодека : V_MPEG4/ISO/AVC
Продолжительность : 1 ч. 11 м.
Битрейт : 3472 Кбит/сек
Ширина : 1280 пикселей
Высота : 720 пикселей
Соотношение сторон : 16:9
Режим частоты кадров : Постоянный
Частота кадров : 23,976 кадра/сек
Цветовое пространство : YUV
Субдискретизация насыщенности : 4:2:0
Битовая глубина : 8 бит
Тип развёртки : Прогрессивная
Бит/(Пиксели*Кадры) : 0.157
Размер потока : 1,69 Гбайт (82%)
Заголовок : Три богатыря на дальних берегах.2012. BDRip.720p.NNM-CLUB
Библиотека кодирования : x264 core 129 r2230 1cffe9f
Настройки программы : cabac=1 / ref=8 / deblock=1:-3:-3 / analyse=0x3:0x133 / me=umh / subme=10 / psy=1 / psy_rd=1.00:0.15 / mixed_ref=1 / me_range=32 / chroma_me=1 / trellis=2 / 8x8dct=1 / cqm=0 / deadzone=21,11 / fast_pskip=0 / chroma_qp_offset=-3 / threads=12 / lookahead_threads=2 / sliced_threads=0 / nr=0 / decimate=1 / interlaced=0 / bluray_compat=0 / constrained_intra=0 / bframes=8 / b_pyramid=2 / b_adapt=2 / b_bias=0 / direct=3 / weightb=1 / open_gop=0 / weightp=2 / keyint=240 / keyint_min=22 / scenecut=40 / intra_refresh=0 / rc_lookahead=50 / rc=2pass / mbtree=1 / bitrate=3472 / ratetol=1.0 / qcomp=0.60 / qpmin=0 / qpmax=69 / qpstep=4 / cplxblur=20.0 / qblur=0.5 / ip_ratio=1.40 / aq=1:1.00
Язык : Russian
Default : Да
Forced : Нет
Аудио
Идентификатор : 2
Формат : AC-3
Формат/Информация : Audio Coding 3
Расширение режима : CM (complete main)
Параметр Endianness формата : Big
Идентификатор кодека : A_AC3
Продолжительность : 1 ч. 11 м.
Вид битрейта : Постоянный
Битрейт : 640 Кбит/сек
Каналы : 6 каналов
Расположение каналов : Front: L C R, Side: L R, LFE
Частота : 48,0 КГц
Битовая глубина : 16 бит
Метод сжатия : С потерями
Размер потока : 326 Мбайт (16%)
Заголовок : AC-3 / 5.1 / 640 Кбит/с
Язык : Russian
Default : Да
Forced : Нет
Меню
00:00:00.000 : :Chapter 01
00:05:42.342 : :Chapter 02
00:10:39.597 : :Chapter 03
00:16:36.704 : :Chapter 04
00:24:05.861 : :Chapter 05
00:30:40.004 : :Chapter 06
00:35:16.364 : :Chapter 07
00:42:07.983 : :Chapter 08
00:49:30.759 : :Chapter 09
00:54:38.817 : :Chapter 10
01:00:39.761 : :Chapter 11
01:06:27.233 : :Chapter 12
Скриншоты:




Три богатыря на дальних берегах (2012)
Время раздачи: круглогодичноИграю на аккордеоне за "Спасибо"

[Цитировать]

Топик был перенесен из форума Новинки кинопроката в форум Отечественные мультфильмы
Henkok



Показать сообщения:    

Текущее время: 10-Дек 00:26

Часовой пояс: UTC + 3


Вы не можете начинать темы
Вы не можете отвечать на сообщения
Вы не можете редактировать свои сообщения
Вы не можете удалять свои сообщения
Вы не можете голосовать в опросах
Вы не можете прикреплять файлы к сообщениям
Вы не можете скачивать файлы

!ВНИМАНИЕ!
Сайт не предоставляет электронные версии произведений, а занимается лишь коллекционированием и каталогизацией ссылок, присылаемых и публикуемых на форуме нашими читателями. Если вы являетесь правообладателем какого-либо представленного материала и не желаете, чтобы ссылка на него находилась в нашем каталоге, свяжитесь с нами, и мы незамедлительно удалим ее. Файлы для обмена на трекере предоставлены пользователями сайта, и администрация не несет ответственности за их содержание. Просьба не заливать файлы, защищенные авторскими правами, а также файлы нелегального содержания!