[ Сегодня идет свободное скачивание без начисления Download ]


Статистика раздачи
Нет
 
   
 
Top  
 
 
Маньяк-полицейский / Maniac Cop«He Prefers To Kill, Instead Of Protect»
Год выпуска: 1988
Страна: США
Производство: Shapiro-Glickenhaus Home Video (I)
Жанр: ужасы, боевик, триллер
Режиссер: Уильям Лустиг
В ролях: Том Аткинс, Брюс Кэмпбелл, Лаурен Лэндон, Ричард Раундтри, Уильям Смит, Роберт З'Дар, Шири Норт, Нина Арвесен, Ник Барбаро, Лу Бонаки
Перевод: Любительский (одноголосый)
Субтитры: Отсутствуют
Описание: Нью-Йорк в ужасе! Город охватила серия жестоких убийств. Все свидетели утверждают, что их совершил некто в форме полицейского. Управление полиции поначалу не верит в это, и только лейтенант Френк МакКрей понимает о ком идет речь.
[kp]2917[/kp] [imdb]tt0095583[/imdb]
Качество: BDRip 720p
Продолжительность: 01:25:00
Формат: MKV
Видео кодек: AVC [email protected]
Аудио кодек: AC3, DTS
Видео: 1280x696 (16:9) at 23.976 fps, x264, ~5852 kbps avg, 0.274 bit/pixel
Аудио: Russian: 48 kHz, AC3, 2/0 (L,R) ch, ~192.00 kbps avg |Одноголосый|
Аудио #2: English: 48 kHz, DTS, 3/2 (L,C,R,l,r) + LFE ch, ~1536.00 kbps avg
Главы: Нет

Media Info

G:\HDFILMS\Maniac.Cop.1988.720p.BDRip.Rus.Eng.mkv
General
Complete name : G:\HDFILMS\Maniac.Cop.1988.720p.BDRip.Rus.Eng.mkv
Format : Matroska
File size : 4.48 GiB
Duration : 1h 25mn
Overall bit rate : 7 551 Kbps
Encoded date : UTC 2011-10-15 10:57:47
Writing application : mkvmerge v2.9.8 ('C'est le bon') built on Aug 13 2009 12:49:06
Writing library : libebml v0.7.7 + libmatroska v0.8.1
Video #1
ID : 1
Format : AVC
Format/Info : Advanced Video Codec
Format profile : [email protected]
Format settings, CABAC : Yes
Format settings, ReFrames : 5 frames
Format settings, GOP : M=4, N=16
Muxing mode : Container [email protected]
Codec ID : V_MPEG4/ISO/AVC
Duration : 1h 25mn
Bit rate : 5 852 Kbps
Width : 1 280 pixels
Height : 696 pixels
Display aspect ratio : 16:9
Frame rate : 23.976 fps
Color space : YUV
Chroma subsampling : 4:2:0
Bit depth : 8 bits
Scan type : Progressive
Bits/(Pixel*Frame) : 0.274
Stream size : 3.38 GiB (75%)
Title : maniac.cop.1988.720p.bluray.x264-psychd
Writing library : x264 core 118 r2085 8a62835
Encoding settings : cabac=1 / ref=5 / deblock=1:0:0 / analyse=0x3:0x113 / me=umh / subme=8 / psy=1 / psy_rd=1.00:0.00 / mixed_ref=1 / me_range=16 / chroma_me=1 / trellis=1 / 8x8dct=1 / cqm=0 / deadzone=21,11 / fast_pskip=1 / chroma_qp_offset=-2 / threads=12 / sliced_threads=0 / nr=0 / decimate=1 / interlaced=0 / bluray_compat=0 / constrained_intra=0 / bframes=3 / b_pyramid=2 / b_adapt=2 / b_bias=0 / direct=3 / weightb=1 / open_gop=0 / weightp=2 / keyint=240 / keyint_min=24 / scenecut=40 / intra_refresh=0 / rc_lookahead=50 / rc=2pass / mbtree=1 / bitrate=5852 / ratetol=1.0 / qcomp=0.60 / qpmin=0 / qpmax=69 / qpstep=4 / cplxblur=20.0 / qblur=0.5 / ip_ratio=1.40 / aq=1:1.00
Language : English
Audio #2
ID : 2
Format : AC-3
Format/Info : Audio Coding 3
Mode extension : CM (complete main)
Codec ID : A_AC3
Duration : 1h 25mn
Bit rate mode : Constant
Bit rate : 192 Kbps
Channel(s) : 2 channels
Channel positions : Front: L R
Sampling rate : 48.0 KHz
Bit depth : 16 bits
Stream size : 117 MiB (3%)
Title : Leshch AC3 2.0 192 kbps
Language : Russian
Audio #3
ID : 3
Format : DTS
Format/Info : Digital Theater Systems
Format profile : ES
Codec ID : A_DTS
Duration : 1h 25mn
Bit rate mode : Constant
Bit rate : 1 510 Kbps
Channel(s) : 7 channels
Channel positions : Front: L C R, Side: L R, Back: C, LFE
Sampling rate : 48.0 KHz
Bit depth : 24 bits
Video delay : 11ms
Stream size : 918 MiB (20%)
Title : Original DTS 5.1 1536 kbps
Language : English
-[th]http://torrentsclub.org/pictures/259b681b558ae5879a...38891d6.png[/th] [th]http://torrentsclub.org/pictures/646dd468ecc6eff2bd...f24ece9.png[/th] [th]http://torrentsclub.org/pictures/24c182ac3641e8041d...f43828d.png[/th]-

[Цитировать]



Показать сообщения:    

Текущее время: 05-Дек 05:34

Часовой пояс: UTC + 3


Вы не можете начинать темы
Вы не можете отвечать на сообщения
Вы не можете редактировать свои сообщения
Вы не можете удалять свои сообщения
Вы не можете голосовать в опросах
Вы не можете прикреплять файлы к сообщениям
Вы не можете скачивать файлы

!ВНИМАНИЕ!
Сайт не предоставляет электронные версии произведений, а занимается лишь коллекционированием и каталогизацией ссылок, присылаемых и публикуемых на форуме нашими читателями. Если вы являетесь правообладателем какого-либо представленного материала и не желаете, чтобы ссылка на него находилась в нашем каталоге, свяжитесь с нами, и мы незамедлительно удалим ее. Файлы для обмена на трекере предоставлены пользователями сайта, и администрация не несет ответственности за их содержание. Просьба не заливать файлы, защищенные авторскими правами, а также файлы нелегального содержания!