[ Сегодня идет свободное скачивание без начисления Download ]


Статистика раздачи
Нет
 
   
 
 
 
Famous Folk Music: Знаменитая народная музыка. Лютня
Жанр: Folk
Страна-производитель диска: Shenzhen/China
Год издания: 2009
Издатель (лейбл): Flamingo Culture Communication Co., Ltd.
Номер по каталогу: ISRC: CN-F29-09-331-00/A.J6
Страна: China
Аудиокодек: Wave
Тип рипа: image+.cue
Битрейт аудио: DTS 5.1
Продолжительность: 00:42:29
Источник (релизер): Emule
Наличие сканов в содержимом раздачи: нет
Треклист:
1. Pipa Soul of India
2. Clover / Давай за жизнь...
3. The Monochord dance
4. Orchids Love
5. Brave
6. Miracle
7. Mok call off the Buddha
8. Minstrel poet Dance
9. Love
10. Belly dance

Содержание индексной карты (.CUE)

REM DATE 2009REM DISCID 7D09F50AREM COMMENT "ExactAudioCopy v1.0b1"PERFORMER "Mouxiao Zheng"TITLE "masters folk music - Pipa"FILE "Miaoxiao.Chzhen.znamenitaya.Narodnaya.Muzika.Lutnya.(dts)" WAVE TRACK 01 AUDIO TITLE "1. Pipa Soul of India" PERFORMER "Mouxiao Zheng" INDEX 01 00:00:00 TRACK 02 AUDIO TITLE "2. Clover" PERFORMER "Mouxiao Zheng" INDEX 01 04:08:04 TRACK 03 AUDIO TITLE "3. The Monochord dance" PERFORMER "Mouxiao Zheng" INDEX 01 08:43:62 TRACK 04 AUDIO TITLE "4. Orchids Love" PERFORMER "Mouxiao Zheng" INDEX 01 12:35:61 TRACK 05 AUDIO TITLE "5. Brave" PERFORMER "Mouxiao Zheng" INDEX 01 18:56:50 TRACK 06 AUDIO TITLE "6. Miracle" PERFORMER "Mouxiao Zheng" INDEX 01 22:53:12 TRACK 07 AUDIO TITLE "7. Mok call off the Buddha" PERFORMER "Mouxiao Zheng" INDEX 01 26:47:11 TRACK 08 AUDIO TITLE "8. Minstrel poet Dance" PERFORMER "Mouxiao Zheng" INDEX 01 30:31:09 TRACK 09 AUDIO TITLE "9. Love PERFORMER "Mouxiao Zheng" INDEX 01 34:26:46 TRACK 10 AUDIO TITLE "10. Belly dance PERFORMER "Mouxiao Zheng" INDEX 01 38:49:45

Лог проверки качества

Начато: Friday, 30. 11. 2012. - 22:45.41Найдено файлов: 1
1 -===- I:\WAV_FILES\Miaoxiao.Chzhen.znamenitaya.Narodnaya.Muzika.Lutnya.(dts).wav Заключение: этот трек - CDDA с вероятностью 100%
Завершено: Friday, 30. 11. 2012. - 22:48.36 (Время операции: 0:02.55)
AUDIOCHECKER v2.0 beta (build 457) - by Dester - [email protected]

[Цитировать]



Показать сообщения:    

Текущее время: 05-Дек 01:33

Часовой пояс: UTC + 3


Вы не можете начинать темы
Вы не можете отвечать на сообщения
Вы не можете редактировать свои сообщения
Вы не можете удалять свои сообщения
Вы не можете голосовать в опросах
Вы не можете прикреплять файлы к сообщениям
Вы не можете скачивать файлы

!ВНИМАНИЕ!
Сайт не предоставляет электронные версии произведений, а занимается лишь коллекционированием и каталогизацией ссылок, присылаемых и публикуемых на форуме нашими читателями. Если вы являетесь правообладателем какого-либо представленного материала и не желаете, чтобы ссылка на него находилась в нашем каталоге, свяжитесь с нами, и мы незамедлительно удалим ее. Файлы для обмена на трекере предоставлены пользователями сайта, и администрация не несет ответственности за их содержание. Просьба не заливать файлы, защищенные авторскими правами, а также файлы нелегального содержания!