[ Сегодня идет свободное скачивание без начисления Download ]


Статистика раздачи
Нет
 
   
 
Top  
 
 
-The ReBeatles Project - Get Back! (2010)- Год: 2010
Издание: Sony Music
Каталог№: B7092E0E
Жанр: Rock/ Beat
Источник (релизер): YanVladimirovich
Сканы: Фронт
Продолжительность: 00:39:10
Кодек: FLAC
Тип рипа: Tracks+.cue
Битрейт: Lossless-Трек лист:
01. Beautiful (Christina Aguilera) (3:04)
02. Get The Party Started (Pink) (2:45)
03. Rehab (Amy Winehouse) (3:15)
04. Around The World (La La La La La) (ATC) (2:22)
05. (You Gotta) Fight For Your Right (To Party) (Beastie Boys) (2:29)
06. Eternal Flame (Bangles, the) (3:26)
07. Do You Really Want To Hurt Me? (Culture Club) (2:34)
08. Let Me Entertain You (Robbie Williams) (2:57)
09. Hold Me Now (Thompson Twins) (3:19)
10. Poker Face (Lady Gaga) (2:29)
11. Three Lions (Baddiel + Skinner) (2:41)
12. Happy Birthday (Stevie Wonder) (2:44)
13. One (U2) (2:37)
14. I Want You (To Say) (2:28)
-

Содержимое индексной карты:

REM GENRE Beat
REM DATE 2010
REM DISCID B7092E0E
REM COMMENT "ExactAudioCopy v1.0b3"
PERFORMER "The ReBeatles Project"
TITLE "Get Back!"
FILE "01 Beautiful [Christina Aguilera].wav" WAVE
TRACK 01 AUDIO
TITLE "Beautiful [Christina Aguilera]"
PERFORMER "The ReBeatles Project"
INDEX 01 00:00:00
TRACK 02 AUDIO
TITLE "Get The Party Started [Pink]"
PERFORMER "The ReBeatles Project"
INDEX 00 03:02:25
FILE "02 Get The Party Started [Pink].wav" WAVE
INDEX 01 00:00:00
TRACK 03 AUDIO
TITLE "Rehab [Amy Winehouse]"
PERFORMER "The ReBeatles Project"
INDEX 00 02:42:74
FILE "03 Rehab [Amy Winehouse].wav" WAVE
INDEX 01 00:00:00
TRACK 04 AUDIO
TITLE "Around The World (La La La La La) [ATC]"
PERFORMER "The ReBeatles Project"
INDEX 00 03:13:27
FILE "04 Around The World (La La La La La) [ATC].wav" WAVE
INDEX 01 00:00:00
TRACK 05 AUDIO
TITLE "(You Gotta) Fight For Your Right (To Party) [Beastie Boys]"
PERFORMER "The ReBeatles Project"
INDEX 00 02:20:21
FILE "05 (You Gotta) Fight For Your Right (To Party) [Beastie Boys].wav" WAVE
INDEX 01 00:00:00
TRACK 06 AUDIO
TITLE "Eternal Flame [Bangles, the]"
PERFORMER "The ReBeatles Project"
INDEX 00 02:27:46
FILE "06 Eternal Flame [Bangles, the].wav" WAVE
INDEX 01 00:00:00
TRACK 07 AUDIO
TITLE "Do You Really Want To Hurt Me? [Culture Club]"
PERFORMER "The ReBeatles Project"
INDEX 00 03:24:18
FILE "07 Do You Really Want To Hurt Me [Culture Club].wav" WAVE
INDEX 01 00:00:00
TRACK 08 AUDIO
TITLE "Let Me Entertain You [Robbie Williams]"
PERFORMER "The ReBeatles Project"
INDEX 00 02:32:08
FILE "08 Let Me Entertain You [Robbie Williams].wav" WAVE
INDEX 01 00:00:00
TRACK 09 AUDIO
TITLE "Hold Me Now [Thompson Twins]"
PERFORMER "The ReBeatles Project"
INDEX 00 02:55:19
FILE "09 Hold Me Now [Thompson Twins].wav" WAVE
INDEX 01 00:00:00
TRACK 10 AUDIO
TITLE "Poker Face [Lady Gaga]"
PERFORMER "The ReBeatles Project"
INDEX 00 03:17:39
FILE "10 Poker Face [Lady Gaga].wav" WAVE
INDEX 01 00:00:00
TRACK 11 AUDIO
TITLE "Three Lions [Baddiel + Skinner]"
PERFORMER "The ReBeatles Project"
INDEX 00 02:28:20
FILE "11 Three Lions [Baddiel + Skinner].wav" WAVE
INDEX 01 00:00:00
TRACK 12 AUDIO
TITLE "Happy Birthday [Stevie Wonder]"
PERFORMER "The ReBeatles Project"
INDEX 00 02:39:46
FILE "12 Happy Birthday [Stevie Wonder].wav" WAVE
INDEX 01 00:00:00
TRACK 13 AUDIO
TITLE "One [U2]"
PERFORMER "The ReBeatles Project"
INDEX 00 02:42:16
FILE "13 One [U2].wav" WAVE
INDEX 01 00:00:00
TRACK 14 AUDIO
TITLE "I Want You (To Say)"
PERFORMER "The ReBeatles Project"
INDEX 00 02:34:66
FILE "14 I Want You (To Say).wav" WAVE
INDEX 01 00:00:00

Отчёт ЕАС:

Exact Audio Copy V1.0 beta 3 from 29. August 2011
EAC extraction logfile from 24. January 2013, 14:50
The ReBeatles Project / Get Back!
Used drive  : hp      DVD RAM UJ892   Adapter: 1  ID: 0
Read mode               : Secure
Utilize accurate stream : Yes
Defeat audio cache      : Yes
Make use of C2 pointers : No
Read offset correction                      : 102
Overread into Lead-In and Lead-Out          : No
Fill up missing offset samples with silence : Yes
Delete leading and trailing silent blocks   : No
Null samples used in CRC calculations       : Yes
Used interface                              : Native Win32 interface for Win NT & 2000
Gap handling                                : Appended to previous track
Used output format              : User Defined Encoder
Selected bitrate                : 768 kBit/s
Quality                         : High
Add ID3 tag                     : No
Command line compressor         : C:\Program Files (x86)\Exact Audio Copy\FLAC\FLAC.EXE
Additional command line options : -8 -V -T "ARTIST=%artist%" -T "TITLE=%title%" -T "ALBUM=%albumtitle%" -T "DATE=%year%" -T "TRACKNUMBER=%tracknr%" -T "GENRE=%genre%" -T "COMMENT=%comment%" -T "BAND=%albuminterpret%" -T "ALBUMARTIST=%albuminterpret%" -T "COMPOSER=%composer%" %haslyrics%--tag-from-file=LYRICS="%lyricsfile%"%haslyrics% -T "DISCNUMBER=%cdnumber%" -T "TOTALDISCS=%totalcds%" -T "TOTALTRACKS=%numtracks%" %hascover%--picture="%coverfile%"%hascover% %source% -o %dest%
TOC of the extracted CD
     Track |   Start  |  Length  | Start sector | End sector
    ---------------------------------------------------------
        1  |  0:00.00 |  3:03.66 |         0    |    13790
        2  |  3:03.66 |  2:44.42 |     13791    |    26132
        3  |  5:48.33 |  3:15.26 |     26133    |    40783
        4  |  9:03.59 |  2:21.48 |     40784    |    51406
        5  | 11:25.32 |  2:29.34 |     51407    |    62615
        6  | 13:54.66 |  3:25.65 |     62616    |    78055
        7  | 17:20.56 |  2:33.64 |     78056    |    89594
        8  | 19:54.45 |  2:57.23 |     89595    |   102892
        9  | 22:51.68 |  3:19.15 |    102893    |   117832
       10  | 26:11.08 |  2:28.74 |    117833    |   129006
       11  | 28:40.07 |  2:41.37 |    129007    |   141118
       12  | 31:21.44 |  2:44.23 |    141119    |   153441
       13  | 34:05.67 |  2:36.55 |    153442    |   165196
       14  | 36:42.47 |  2:27.66 |    165197    |   176287
Track  1
     Filename D:\ToEcode\The ReBeatles Project\2010 - Get Back!\01 Beautiful [Christina Aguilera].wav
     Pre-gap length  0:00:02.00
     Peak level 99.9 %
     Extraction speed 1.4 X
     Track quality 100.0 %
     Test CRC B89F11FA
     Copy CRC B89F11FA
     Accurately ripped (confidence 4)  [47776D77]  (AR v1)
     Copy OK
Track  2
     Filename D:\ToEcode\The ReBeatles Project\2010 - Get Back!\02 Get The Party Started [Pink].wav
     Pre-gap length  0:00:01.41
     Peak level 99.0 %
     Extraction speed 1.5 X
     Track quality 100.0 %
     Test CRC 0D4510F1
     Copy CRC 0D4510F1
     Accurately ripped (confidence 4)  [9EAD04B4]  (AR v1)
     Copy OK
Track  3
     Filename D:\ToEcode\The ReBeatles Project\2010 - Get Back!\03 Rehab [Amy Winehouse].wav
     Pre-gap length  0:00:01.43
     Peak level 99.0 %
     Extraction speed 1.6 X
     Track quality 100.0 %
     Test CRC 1EAC1AAB
     Copy CRC 1EAC1AAB
     Accurately ripped (confidence 4)  [168A4D0A]  (AR v1)
     Copy OK
Track  4
     Filename D:\ToEcode\The ReBeatles Project\2010 - Get Back!\04 Around The World (La La La La La) [ATC].wav
     Pre-gap length  0:00:01.74
     Peak level 99.0 %
     Extraction speed 1.6 X
     Track quality 100.0 %
     Test CRC 5E499774
     Copy CRC 5E499774
     Accurately ripped (confidence 4)  [B2D2A385]  (AR v1)
     Copy OK
Track  5
     Filename D:\ToEcode\The ReBeatles Project\2010 - Get Back!\05 (You Gotta) Fight For Your Right (To Party) [Beastie Boys].wav
     Pre-gap length  0:00:01.27
     Peak level 99.0 %
     Extraction speed 1.7 X
     Track quality 100.0 %
     Test CRC 484E026D
     Copy CRC 484E026D
     Accurately ripped (confidence 4)  [22E7A2D7]  (AR v1)
     Copy OK
Track  6
     Filename D:\ToEcode\The ReBeatles Project\2010 - Get Back!\06 Eternal Flame [Bangles, the].wav
     Pre-gap length  0:00:01.63
     Peak level 99.0 %
     Extraction speed 2.0 X
     Track quality 100.0 %
     Test CRC 702BD538
     Copy CRC 702BD538
     Accurately ripped (confidence 4)  [ECAF298B]  (AR v1)
     Copy OK
Track  7
     Filename D:\ToEcode\The ReBeatles Project\2010 - Get Back!\07 Do You Really Want To Hurt Me [Culture Club].wav
     Pre-gap length  0:00:01.47
     Peak level 99.0 %
     Extraction speed 1.9 X
     Track quality 100.0 %
     Test CRC A48548D9
     Copy CRC A48548D9
     Accurately ripped (confidence 4)  [82681302]  (AR v1)
     Copy OK
Track  8
     Filename D:\ToEcode\The ReBeatles Project\2010 - Get Back!\08 Let Me Entertain You [Robbie Williams].wav
     Pre-gap length  0:00:01.56
     Peak level 99.0 %
     Extraction speed 1.7 X
     Track quality 99.9 %
     Test CRC 316D8C29
     Copy CRC 316D8C29
     Accurately ripped (confidence 4)  [2B959044]  (AR v1)
     Copy OK
Track  9
     Filename D:\ToEcode\The ReBeatles Project\2010 - Get Back!\09 Hold Me Now [Thompson Twins].wav
     Pre-gap length  0:00:02.04
     Peak level 99.0 %
     Extraction speed 1.9 X
     Track quality 99.9 %
     Test CRC 52A40E09
     Copy CRC 52A40E09
     Accurately ripped (confidence 4)  [1C8C7EB9]  (AR v1)
     Copy OK
Track 10
     Filename D:\ToEcode\The ReBeatles Project\2010 - Get Back!\10 Poker Face [Lady Gaga].wav
     Pre-gap length  0:00:01.51
     Peak level 99.0 %
     Extraction speed 2.1 X
     Track quality 100.0 %
     Test CRC 21488B5D
     Copy CRC 21488B5D
     Accurately ripped (confidence 4)  [1BAAAB30]  (AR v1)
     Copy OK
Track 11
     Filename D:\ToEcode\The ReBeatles Project\2010 - Get Back!\11 Three Lions [Baddiel + Skinner].wav
     Pre-gap length  0:00:00.54
     Peak level 99.0 %
     Extraction speed 2.2 X
     Track quality 100.0 %
     Test CRC 120E052B
     Copy CRC 120E052B
     Accurately ripped (confidence 4)  [B2589246]  (AR v1)
     Copy OK
Track 12
     Filename D:\ToEcode\The ReBeatles Project\2010 - Get Back!\12 Happy Birthday [Stevie Wonder].wav
     Pre-gap length  0:00:01.66
     Peak level 99.0 %
     Extraction speed 2.0 X
     Track quality 99.9 %
     Test CRC 614862C7
     Copy CRC 614862C7
     Accurately ripped (confidence 4)  [BA32C78F]  (AR v1)
     Copy OK
Track 13
     Filename D:\ToEcode\The ReBeatles Project\2010 - Get Back!\13 One [U2].wav
     Pre-gap length  0:00:02.07
     Peak level 99.0 %
     Extraction speed 2.3 X
     Track quality 100.0 %
     Test CRC B6D6BF92
     Copy CRC B6D6BF92
     Accurately ripped (confidence 4)  [0930CD57]  (AR v1)
     Copy OK
Track 14
     Filename D:\ToEcode\The ReBeatles Project\2010 - Get Back!\14 I Want You (To Say).wav
     Pre-gap length  0:00:01.64
     Peak level 99.0 %
     Extraction speed 2.4 X
     Track quality 100.0 %
     Test CRC 872ADA05
     Copy CRC 872ADA05
     Accurately ripped (confidence 4)  [BD4B0C6C]  (AR v1)
     Copy OK
All tracks accurately ripped
No errors occurred
End of status report
==== Log checksum 555FE797B6082D07F8BB2B5C918EDE63CC065BB92772186D5493804EF7301E98 ====

Отчёт auCDtect Task manager:

-----------------------
DON'T MODIFY THIS FILE
-----------------------
PERFORMER: auCDtect Task Manager, ver. 1.5.1RC6 build 1.5.1.7
Copyright (c) 2008-2010 y-soft. All rights reserved
http://y-soft.org
ANALYZER: auCDtect: CD records authenticity detector, version 0.8.2
Copyright (c) 2004 Oleg Berngardt. All rights reserved.
Copyright (c) 2004 Alexander Djourik. All rights reserved.
FILE: 14 I Want You (To Say).flac
  Size: 17236081 Hash: 7512D7C45BEED0494E9995E6ACC0BCD4 Accuracy: -m0
  Conclusion: CDDA 99%
  Signature: 6D36C3202FA9233C903DAB6F20B171A7580B1703
FILE: 13 One [U2].flac
  Size: 17263555 Hash: 282BA556FDED550FF10EBC2BC4059EC1 Accuracy: -m0
  Conclusion: CDDA 100%
  Signature: BBBC36674C86BA3BD7EF9A6C46AB5636D4BB6B4E
FILE: 12 Happy Birthday [Stevie Wonder].flac
  Size: 19507818 Hash: D29732BD43D9DB8CCA6CCB6E981B0067 Accuracy: -m0
  Conclusion: CDDA 100%
  Signature: E3D5DB98450F54C65712A611200CDB4C4FD604C7
FILE: 11 Three Lions [Baddiel + Skinner].flac
  Size: 18720362 Hash: D4357B135BD24C1786D12EACF302EF0F Accuracy: -m0
  Conclusion: CDDA 100%
  Signature: 2A957888E2B7CF3AD4861027EF5558D3100E1DFC
FILE: 10 Poker Face [Lady Gaga].flac
  Size: 17543050 Hash: 6E65274765E18A153E399A9A5C4827B5 Accuracy: -m0
  Conclusion: CDDA 100%
  Signature: 7178BBA3041DA8489EF3074B2534CAE65DC18C8E
FILE: 09 Hold Me Now [Thompson Twins].flac
  Size: 24439851 Hash: 992E4F87E8CB5B25F4F848035FC46CDB Accuracy: -m0
  Conclusion: CDDA 100%
  Signature: E25FB2EE6848FFA2D6D5ED7F00A364F40A82E1D9
FILE: 08 Let Me Entertain You [Robbie Williams].flac
  Size: 18487409 Hash: AAE39E31C3FB6F251EAF1AE5E4899D2F Accuracy: -m0
  Conclusion: CDDA 100%
  Signature: D36867D1252DE9DDF7896FD5C0A7893B80A3BC0C
FILE: 07 Do You Really Want To Hurt Me [Culture Club].flac
  Size: 17475443 Hash: 02F3365DF2B44E174DEBCEA067A621D9 Accuracy: -m0
  Conclusion: CDDA 99%
  Signature: 40CD860580B8DEC3610FC8F6574F407576BD94AF
FILE: 06 Eternal Flame [Bangles, the].flac
  Size: 24194566 Hash: 6C3CC2A1FCC0B1743775A863367F0D11 Accuracy: -m0
  Conclusion: CDDA 99%
  Signature: 714D149B6DF8127AE508ED3315E8B386AF8B057B
FILE: 05 (You Gotta) Fight For Your Right (To Party) [Beastie Boys].flac
  Size: 15518938 Hash: 07E6FA297BBC119D2614490C37056E4D Accuracy: -m0
  Conclusion: CDDA 100%
  Signature: ADBB5036DAE32F13865C38B728D99B877ABB7CE5
FILE: 04 Around The World (La La La La La) [ATC].flac
  Size: 16301225 Hash: 87665C0DFA4CBD64DAB8A8FDFACBE394 Accuracy: -m0
  Conclusion: CDDA 99%
  Signature: E2D40BA80E858FEB24017B3437B2F104F41661B3
FILE: 03 Rehab [Amy Winehouse].flac
  Size: 22523714 Hash: 9D1E47529D24B033B3547E36FD6FCA7B Accuracy: -m0
  Conclusion: CDDA 100%
  Signature: BBDB64BC0472533CE126E1080F386F55DC407E76
FILE: 02 Get The Party Started [Pink].flac
  Size: 19977627 Hash: 9E912BF49B75064D9CF857653FFAEE2F Accuracy: -m0
  Conclusion: CDDA 100%
  Signature: 99FF120367E54112F0B0733C9189EA8E7980F46E
FILE: 01 Beautiful [Christina Aguilera].flac
  Size: 22618245 Hash: 7F7A4F3F9E9990B517316645842D8E79 Accuracy: -m0
  Conclusion: CDDA 100%
  Signature: 981F16489AC82FD2A94AEBD6883E993E9E20C9AE

[Цитировать]



Показать сообщения:    

Текущее время: 10-Дек 13:50

Часовой пояс: UTC + 3


Вы не можете начинать темы
Вы не можете отвечать на сообщения
Вы не можете редактировать свои сообщения
Вы не можете удалять свои сообщения
Вы не можете голосовать в опросах
Вы не можете прикреплять файлы к сообщениям
Вы не можете скачивать файлы

!ВНИМАНИЕ!
Сайт не предоставляет электронные версии произведений, а занимается лишь коллекционированием и каталогизацией ссылок, присылаемых и публикуемых на форуме нашими читателями. Если вы являетесь правообладателем какого-либо представленного материала и не желаете, чтобы ссылка на него находилась в нашем каталоге, свяжитесь с нами, и мы незамедлительно удалим ее. Файлы для обмена на трекере предоставлены пользователями сайта, и администрация не несет ответственности за их содержание. Просьба не заливать файлы, защищенные авторскими правами, а также файлы нелегального содержания!