[ Сегодня идет свободное скачивание без начисления Download ]


Статистика раздачи
Нет
 
   
 
Top  
 
 
-Семь психопатов / Seven Psychopaths (2012) [H.264] BDRip- Русское название: Семь психопатов
Оригинальное название: Seven Psychopaths
Год выпуска: 2012
Производство: Великобритания / Blueprint Pictures, British Film Institute (BFI), Film4
Жанр: Комедия, криминал
Перевод: Дублированный + Авторский (одноголосый закадровый) "Гоблин" + Украинский (Профессиональный многоголосый) [Студия "AAA-sound" по заказу "Caravella-DDC"] + Английский
Субтитры: Вшитые отключаемые
Язык субтитров: Русский, Английский (форсированные, полные - 2 вида)
Переход по главам: Да-Дата мировой премьеры: 7 сентября 2012
Дата российской премьеры: 18 октября 2012, «Каравелла DDC»
Дата выхода DVD релиза: 6 февраля 2013, «Кармен Видео»
Режиссер: Мартин МакДона
Продюсер: Грэхэм Броадбент, Питер Чернин, Мартин МакДона
Актеры: Колин Фаррелл, Сэм Рокуэлл, Кристофер Уокен, Эбби Корниш, Том Уэйтс, Вуди Харрельсон, Ольга Куриленко, Желько Иванек, Майкл Питт, Майкл Стулбарг
Описание фильма:
Непутевый писатель потерял вдохновение и никак не может справиться с новым сценарием. Волей случая он оказывается втянутым в похищение собаки, затеянное его эксцентричными дружками. Выясняется, что украденное животное — любимый пёс главного местного гангстера, которому ничего не стоит в два счета вычислить и уничтожить оболтусов.

Рейтинг R - Детям до 17 лет обязательно присутствие родителей
Возраст 18+ - Зрителям, достигшим 18 лет
Продолжительность: 01:50:24
Качество видео: BDRip
Формат: MKV
Видеокодек: MPEG-4 AVC/H.264
Битрейт видео: 2856 Кбит/с
Размер кадра: 1024x426, 23.976 кадр/с
Аудио#1: AC3, 6 ch, 448 Кбит/с) Дублированный
Аудио#2: AC3, 6 ch, 448 Кбит/с) Авторский одноголосый [Дмитрий Пучков "Гоблин"]
Аудио#3: AC3, 6 ch, 448 Кбит/с) Украинский (Профессиональный многоголосый) [Студия "AAA-sound" по заказу "Caravella-DDC"]
Аудио#4: AC3, 6 ch, 448 Кбит/с) Английский-

MediaInfo:

General
Unique ID : 183178146356249496356957621434388262807 (0x89CED3E59EEA9CDFAAD041A3C8132F97)
Complete name : J:\Семь психопатов Seven Psychopaths (2012) [H.264].mkv
Format : Matroska
Format version : Version 4 / Version 2
File size : 3.59 GiB
Duration : 1h 50mn
Overall bit rate : 4 653 Kbps
Movie name : Семь психопатов | Seven Psychopaths [2012] -=BDRip (AVC) by 0ptimus=-
Encoded date : UTC 2013-02-05 09:17:59
Writing application : mkvmerge v6.0.0 ('Coming Up For Air') built on Jan 20 2013 09:52:00
Writing library : libebml v1.3.0 + libmatroska v1.4.0
Video
ID : 1
Format : AVC
Format/Info : Advanced Video Codec
Format profile : [email protected]
Format settings, CABAC : Yes
Format settings, ReFrames : 9 frames
Codec ID : V_MPEG4/ISO/AVC
Duration : 1h 50mn
Bit rate : 2 856 Kbps
Width : 1 024 pixels
Height : 426 pixels
Display aspect ratio : 2.40:1
Frame rate mode : Constant
Frame rate : 23.976 fps
Color space : YUV
Chroma subsampling : 4:2:0
Bit depth : 8 bits
Scan type : Progressive
Bits/(Pixel*Frame) : 0.273
Stream size : 2.13 GiB (60%)
Title : by 0ptimus
Writing library : x264 core 129 r2245 bc13772
Encoding settings : cabac=1 / ref=9 / deblock=1:-3:-3 / analyse=0x3:0x113 / me=umh / subme=11 / psy=1 / psy_rd=1.00:0.20 / mixed_ref=1 / me_range=32 / chroma_me=1 / trellis=2 / 8x8dct=1 / cqm=0 / deadzone=21,11 / fast_pskip=0 / chroma_qp_offset=-3 / threads=3 / lookahead_threads=1 / sliced_threads=0 / nr=0 / decimate=0 / interlaced=0 / bluray_compat=0 / constrained_intra=0 / bframes=12 / b_pyramid=2 / b_adapt=2 / b_bias=0 / direct=3 / weightb=1 / open_gop=0 / weightp=2 / keyint=240 / keyint_min=23 / scenecut=40 / intra_refresh=0 / rc_lookahead=40 / rc=2pass / mbtree=0 / bitrate=2856 / ratetol=1.0 / qcomp=0.60 / qpmin=0 / qpmax=69 / qpstep=4 / cplxblur=20.0 / qblur=0.5 / vbv_maxrate=50000 / vbv_bufsize=50000 / nal_hrd=none / ip_ratio=1.40 / pb_ratio=1.30 / aq=1:1.00
Language : English
Default : Yes
Forced : Yes
Audio #1
ID : 2
Format : AC-3
Format/Info : Audio Coding 3
Mode extension : CM (complete main)
Format settings, Endianness : Big
Codec ID : A_AC3
Duration : 1h 50mn
Bit rate mode : Constant
Bit rate : 448 Kbps
Channel(s) : 6 channels
Channel positions : Front: L C R, Side: L R, LFE
Sampling rate : 48.0 KHz
Bit depth : 16 bits
Compression mode : Lossy
Stream size : 354 MiB (10%)
Title : Дублированный
Language : Russian
Default : Yes
Forced : Yes
Audio #2
ID : 3
Format : AC-3
Format/Info : Audio Coding 3
Mode extension : CM (complete main)
Format settings, Endianness : Big
Codec ID : A_AC3
Duration : 1h 50mn
Bit rate mode : Constant
Bit rate : 448 Kbps
Channel(s) : 6 channels
Channel positions : Front: L C R, Side: L R, LFE
Sampling rate : 48.0 KHz
Bit depth : 16 bits
Compression mode : Lossy
Stream size : 354 MiB (10%)
Title : Авторский [Дмитрий Пучков "Гоблин"]
Language : Russian
Default : No
Forced : No
Audio #3
ID : 4
Format : AC-3
Format/Info : Audio Coding 3
Mode extension : CM (complete main)
Format settings, Endianness : Big
Codec ID : A_AC3
Duration : 1h 50mn
Bit rate mode : Constant
Bit rate : 448 Kbps
Channel(s) : 6 channels
Channel positions : Front: L C R, Side: L R, LFE
Sampling rate : 48.0 KHz
Bit depth : 16 bits
Compression mode : Lossy
Stream size : 354 MiB (10%)
Title : Многоголосый закадровый) [Студия "AAA-sound" по заказу "Caravella-DDC"]
Language : Ukrainian
Default : No
Forced : No
Audio #4
ID : 5
Format : AC-3
Format/Info : Audio Coding 3
Mode extension : CM (complete main)
Format settings, Endianness : Big
Codec ID : A_AC3
Duration : 1h 50mn
Bit rate mode : Constant
Bit rate : 448 Kbps
Channel(s) : 6 channels
Channel positions : Front: L C R, Side: L R, LFE
Sampling rate : 48.0 KHz
Bit depth : 16 bits
Compression mode : Lossy
Stream size : 354 MiB (10%)
Language : English
Default : No
Forced : No
Text #1
ID : 6
Format : UTF-8
Codec ID : S_TEXT/UTF8
Codec ID/Info : UTF-8 Plain Text
Language : Russian
Default : No
Forced : No
Text #2
ID : 7
Format : UTF-8
Codec ID : S_TEXT/UTF8
Codec ID/Info : UTF-8 Plain Text
Title : Форсированные
Language : English
Default : No
Forced : No
Text #3
ID : 8
Format : UTF-8
Codec ID : S_TEXT/UTF8
Codec ID/Info : UTF-8 Plain Text
Title : #1
Language : English
Default : No
Forced : No
Text #4
ID : 9
Format : UTF-8
Codec ID : S_TEXT/UTF8
Codec ID/Info : UTF-8 Plain Text
Title : #2
Language : English
Default : No
Forced : No
Menu
00:00:00.000 : en:00:00:00.000
00:06:53.038 : en:00:06:53.038
00:14:26.115 : en:00:14:26.115
00:20:37.987 : en:00:20:37.987
00:27:05.916 : en:00:27:05.916
00:33:35.722 : en:00:33:35.722
00:38:01.112 : en:00:38:01.112
00:45:08.205 : en:00:45:08.205
00:52:11.295 : en:00:52:11.295
00:59:04.207 : en:00:59:04.207
01:09:26.496 : en:01:09:26.496
01:17:18.133 : en:01:17:18.133
01:20:54.641 : en:01:20:54.641
01:26:29.393 : en:01:26:29.393
01:35:36.814 : en:01:35:36.814
01:41:13.192 : en:01:41:13.192

x264 log:

x264 [info]: frame I:1192 Avg QP:16.07 size: 88368
x264 [info]: frame P:29923 Avg QP:18.69 size: 30824
x264 [info]: frame B:127693 Avg QP:20.75 size: 10486
Скриншоты: Время раздачи: С 23:00 до 8:30 (24/7 - круглосуточно)

[Цитировать]

Топик был перенесен из форума Новинки кинопроката в форум Комедия


EnergyStar



Показать сообщения:    

Текущее время: 05-Дек 01:28

Часовой пояс: UTC + 3


Вы не можете начинать темы
Вы не можете отвечать на сообщения
Вы не можете редактировать свои сообщения
Вы не можете удалять свои сообщения
Вы не можете голосовать в опросах
Вы не можете прикреплять файлы к сообщениям
Вы не можете скачивать файлы

!ВНИМАНИЕ!
Сайт не предоставляет электронные версии произведений, а занимается лишь коллекционированием и каталогизацией ссылок, присылаемых и публикуемых на форуме нашими читателями. Если вы являетесь правообладателем какого-либо представленного материала и не желаете, чтобы ссылка на него находилась в нашем каталоге, свяжитесь с нами, и мы незамедлительно удалим ее. Файлы для обмена на трекере предоставлены пользователями сайта, и администрация не несет ответственности за их содержание. Просьба не заливать файлы, защищенные авторскими правами, а также файлы нелегального содержания!