[ Сегодня идет свободное скачивание без начисления Download ]


Статистика раздачи
Нет
 
   
 
Top  
 
 
-Заложница 2 [Расширенная версия] / Taken 2 [Unrated Cut] (2012) BDRip - Русское название: Заложница 2
Оригинальное название: Taken 2
Год выпуска: 2012
Производство: Франция / Europa Corp., Grive Productions, Canal+
Жанр: Боевик, Триллер, Криминал
Перевод: Дубляж (субтитры - на участки расширенной версии!!!)
Субтитры: Вшитые отключаемые
Язык субтитров: (.SRT) - Русский (Полные), Русский (Форсированные - на места без перевода расширенной версии - включены по умолчанию), (.PGS) - Английский (Полные, форсированные)
Режиссер: Оливье Мегатон
Актеры: Лиам Нисон, Мэгги Грэйс, Фамке Янссен, Лиленд Орсер, Джон Грайз, Д.Б. Суини, Люк Граймс, Раде Шербеджия, Кеворк Маликян, Ален Фиглаж, Фрэнк Альварез, Мурат Тунселли, Али Йылдирим, Эргун Куйусу, Ченгиз Бозкурт, Хакан Карахан, Сарухан Сари, Наси Адигюзель, Аклан Бейтс, Мехмет Полат, Йилмаз Кован, Эрдоган Явуз, Луран Ахмети, Ченгиз Данер, Мелис Эрман, Эркан Укунку, Угур Угурал, Алекс Дейв, Оливье Рабурден, Михаэль Вандер-Мерен, Рошелль Грегори, Луэнелль, Эмре Мелемез, Илкай Акдагли, Милен Пилутик, Натан Риппи, Атилла Пекоз, Сердар Октен, Месут Макул, Мустафа Акин, Мурат Каратас, Сунейт Янар, Барис Адем, Хасан Карагулле, Газенфер Кокоз, Ремзи Сезгин
Описание фильма:
Брайану Миллсу придется расхлебывать последствия своих действий. Спасая свою дочь, он убил главаря банды, у которого — сюрприз! — есть отец по имени Мурад. Мурад жаждет отмщения и описывается как человек, отдающий приказы, но сам никогда никому не подчиняющийся. Мурад берет в заложники Миллса с супругой, и тут уже Ким Миллс нужно будет спасать своих родителей.
UNRATED версия! Остуствует около 10 минут перевода.-
Дата мировой премьеры: 7 сентября 2012
Дата российской премьеры: 4 октября 2012, «Централ Партнершип»
Дата выхода DVD релиза: 4 февраля 2013, «Новый Диск»-Релиз от: (за исходник спасибо BLUEBIRD)
Продолжительность: 01:38:18
Качество видео: BDRip LQ (batonchik)
Видео: 1280x536 (2,40:1) / 23,976 fps / High Profile 4.1 / MPEG-4 AVC/H.264 / ~ 2722 Кбит/сек
Аудио: Русский: Dolby Digital Audio / 448 kbps 5.1 / 48 kHz / 16-bit (DUB -> BD RUS)

MediaInfo 0.7.61

Общее
Уникальный идентификатор : 172443899751595432744897102855410553428 (0x81BB7CADB9E59B61B630C3F7F35C1254)
Полное имя :\Taken_2_Unrated Cut_2012_BDRip_720p_NNM-CLUB.mkv
Формат : Matroska
Версия формата : Version 4 / Version 2
Размер файла : 2,18 Гбайт
Продолжительность : 1 ч. 38 м.
Общий поток : 3178 Кбит/сек
Название фильма : Taken_2_Unrated Cut_2012_BDRip_720p_NNM-CLUB
Дата кодирования : UTC 2013-02-11 14:11:23
Программа кодирования : mkvmerge v6.0.0 ('Coming Up For Air') built on Jan 20 2013 09:52:00
Библиотека кодирования : libebml v1.3.0 + libmatroska v1.4.0
Видео
Идентификатор : 1
Формат : AVC
Формат/Информация : Advanced Video Codec
Профиль формата : [email protected]
Параметр CABAC формата : Да
Параметр ReFrames формата : 9 кадров
Идентификатор кодека : V_MPEG4/ISO/AVC
Продолжительность : 1 ч. 38 м.
Битрейт : 2722 Кбит/сек
Ширина : 1280 пикселей
Высота : 536 пикселей
Соотношение сторон : 2,40:1
Режим частоты кадров : Постоянный
Частота кадров : 23,976 кадра/сек
Цветовое пространство : YUV
Субдискретизация насыщенности : 4:2:0
Битовая глубина : 8 бит
Тип развёртки : Прогрессивная
Бит/(Пиксели*Кадры) : 0.165
Размер потока : 1,83 Гбайт (84%)
Заголовок : Taken_2_Unrated Cut_2012_BDRip_720p_NNM-CLUB
Библиотека кодирования : x264 core 129 r2245 bc13772
Настройки программы : cabac=1 / ref=9 / deblock=1:-3:-3 / analyse=0x3:0x133 / me=umh / subme=9 / psy=1 / psy_rd=1.00:0.15 / mixed_ref=1 / me_range=24 / chroma_me=1 / trellis=2 / 8x8dct=1 / cqm=0 / deadzone=21,11 / fast_pskip=0 / chroma_qp_offset=-3 / threads=12 / lookahead_threads=2 / sliced_threads=0 / nr=0 / decimate=1 / interlaced=0 / bluray_compat=0 / constrained_intra=0 / bframes=14 / b_pyramid=2 / b_adapt=2 / b_bias=0 / direct=3 / weightb=0 / open_gop=0 / weightp=2 / keyint=240 / keyint_min=22 / scenecut=40 / intra_refresh=0 / rc_lookahead=50 / rc=2pass / mbtree=1 / bitrate=2722 / ratetol=1.0 / qcomp=0.60 / qpmin=10 / qpmax=51 / qpstep=4 / cplxblur=20.0 / qblur=0.5 / ip_ratio=1.40 / aq=1:1.00
Язык : English
Default : Да
Forced : Нет
Аудио
Идентификатор : 2
Формат : AC-3
Формат/Информация : Audio Coding 3
Расширение режима : CM (complete main)
Параметр Endianness формата : Big
Идентификатор кодека : A_AC3
Продолжительность : 1 ч. 38 м.
Вид битрейта : Постоянный
Битрейт : 448 Кбит/сек
Каналы : 6 каналов
Расположение каналов : Front: L C R, Side: L R, LFE
Частота : 48,0 КГц
Битовая глубина : 16 бит
Метод сжатия : С потерями
Размер потока : 315 Мбайт (14%)
Заголовок : Дубяж
Язык : Russian
Default : Да
Forced : Нет
Текст #1
Идентификатор : 3
Формат : UTF-8
Идентификатор кодека : S_TEXT/UTF8
Идентификатор кодека/Информация : UTF-8 Plain Text
Заголовок : Форсированные - на места без перевода расширенной версии
Язык : Russian
Default : Да
Forced : Нет
Текст #2
Идентификатор : 4
Формат : UTF-8
Идентификатор кодека : S_TEXT/UTF8
Идентификатор кодека/Информация : UTF-8 Plain Text
Заголовок : Полные
Язык : Russian
Default : Нет
Forced : Нет
Текст #3
Идентификатор : 5
Формат : PGS
Режим смешивания : zlib
Идентификатор кодека : S_HDMV/PGS
Идентификатор кодека/Информация : The same subtitle format used on BDs/HD-DVDs
Заголовок : Полные
Язык : English
Default : Нет
Forced : Нет
Текст #4
Идентификатор : 6
Формат : PGS
Режим смешивания : zlib
Идентификатор кодека : S_HDMV/PGS
Идентификатор кодека/Информация : The same subtitle format used on BDs/HD-DVDs
Заголовок : Форсированные
Язык : English
Default : Нет
Forced : Нет
Меню
00:00:00.000 : en:Chapter 1
00:04:18.549 : en:Chapter 2
00:07:25.153 : en:Chapter 3
00:12:00.928 : en:Chapter 4
00:14:38.294 : en:Chapter 5
00:17:54.782 : en:Chapter 6
00:21:36.128 : en:Chapter 7
00:24:45.650 : en:Chapter 8
00:27:50.460 : en:Chapter 9
00:33:02.772 : en:Chapter 10
00:37:43.386 : en:Chapter 11
00:41:03.210 : en:Chapter 12
00:44:27.748 : en:Chapter 13
00:48:53.347 : en:Chapter 14
00:54:20.382 : en:Chapter 15
01:00:49.145 : en:Chapter 16
01:04:32.159 : en:Chapter 17
01:08:52.044 : en:Chapter 18
01:11:17.856 : en:Chapter 19
01:15:48.502 : en:Chapter 20
01:21:39.936 : en:Chapter 21
01:25:44.138 : en:Chapter 22
01:29:23.065 : en:Chapter 23
01:32:19.283 : en:Chapter 24

Знаете ли Вы, что...

Диего Бонета и Завьер Сэмюэл проходили прослушивание на роль, которая отошла Люку Граймсу.
Когда Ким использует первую гранату, Брайан насчитывает около 4-х секунд и говорит, что это было на расстоянии в 4,5 км. Скорость звука составляет около 0,34 км/с, так что взрыв был на расстоянии чуть более 1 км. Чтобы пройти путь в 4,5 км звуку понадобилось бы около 13 секунд.
Когда Брайан поручает Ким рисовать круги на карте, числа, которые он произносит, являются радиусами, а не диаметрами. Если бы она нарисовала окружности, так как он описал, то они были бы гораздо меньше по диаметру, чем было задумано.
Когда Брайан и Ким плывут на пароме, рука Брайана то лежит у нее на плечах, то резко возвращается в исходное положение.
Во время сцены автомобильной погони, заднее окно такси простреливают. В нескольких кадрах после этого окно то целое, то снова разбито.
Несмотря на то, что такси врезается в машины, стены и т. д., оно остается в практически идеальном состоянии на протяжении всей сцены погони.
Посольство США в Турции находится в Анкаре. В Стамбуле есть только консульство США.
Безопасность консульства США в Стамбуле обеспечивается местной охраной, а не американской армией. Помимо этого всегда есть барьеры или железобетонные конструкции, которые не позволят врезаться в пропускной пункт так, как это показано в фильме.
В фильме Стамбул изображается очень неразвитым городом, тогда как в реальной жизни он считается одним из самых больших и самых важных городов Европы. Кроме того, почти все женские персонажи носят паранджу, когда на самом деле это личный выбор каждого, и почти все женщины в Стамбуле не носят ее.
Скриншоты:




Время раздачи: круглогодичноИграю на аккордеоне за "Спасибо"

[Цитировать]



Показать сообщения:    

Текущее время: 05-Дек 23:47

Часовой пояс: UTC + 3


Вы не можете начинать темы
Вы не можете отвечать на сообщения
Вы не можете редактировать свои сообщения
Вы не можете удалять свои сообщения
Вы не можете голосовать в опросах
Вы не можете прикреплять файлы к сообщениям
Вы не можете скачивать файлы

!ВНИМАНИЕ!
Сайт не предоставляет электронные версии произведений, а занимается лишь коллекционированием и каталогизацией ссылок, присылаемых и публикуемых на форуме нашими читателями. Если вы являетесь правообладателем какого-либо представленного материала и не желаете, чтобы ссылка на него находилась в нашем каталоге, свяжитесь с нами, и мы незамедлительно удалим ее. Файлы для обмена на трекере предоставлены пользователями сайта, и администрация не несет ответственности за их содержание. Просьба не заливать файлы, защищенные авторскими правами, а также файлы нелегального содержания!