[ Сегодня идет свободное скачивание без начисления Download ]


Статистика раздачи
Нет
 
   
 
Top  
 
 
Linkin Park - iHeartRadio Music Festival 2012. Исполнитель: Linkin Park
Оригинальное название: Live at iHeartRadio Music Festival 2012
Год выпуска: 2012
Жанр: Alternative, Rock

Описание:
Выступление Linkin Park на фестивале iHeartRadio Music Festival 2012.
Качество: HDTV 1080i (Feed)
Продолжительность: 00:39:20
Формат: ts
Видео кодек: AVC
Аудио кодек: MP2
Видео: 1920x1080 (16:9), 29,970 fps, AVC [email protected] ~33855 kbps avg, 0,545 bit/pixel
Аудио №1: 48 kHz, MPEG-1 Audio layer 2, ~384 kbps avg
Аудио №2: 48 kHz, MPEG-1 Audio layer 2, ~384 kbps avg

Состав группы

Честер Беннингтон — вокал
Майк Шинода — МС, ритм-гитара, клавиши
Роб Бурдон — ударные
Дейв Фарелл — бас-гитара
Брэд Делсон - гитара
Джо Хан - Dj

Треклист

01. In the End
02. Bleed It Out
03. Waiting for the End (Until it Breaks Intro, Wall of Noise Outro)
04. Lost in the Echo
05. Numb
06. Leave Out All the Rest / Shadow of the Day / Iridescent
07. What I've Done
08. Burn It Down
09. Faint
10. One Step Closer

Media Info

General
ID                                       : 1 (0x1)
Complete name                            : F:Linkin ParkLinkin Park - iHeartRadio Music Festival 2012 1080i HDTV 35 Mbps MPA2.0 H.264-TrollHD.ts
Format                                   : MPEG-TS
File size                                : 10.0 GiB
Duration                                 : 39mn 20s
Overall bit rate                         : 36.4 Mbps
Video
ID                                       : 308 (0x134)
Menu ID                                  : 1 (0x1)
Format                                   : AVC
Format/Info                              : Advanced Video Codec
Format profile                           : [email protected]
Format settings, CABAC                   : Yes
Format settings, ReFrames                : 4 frames
Codec ID                                 : 27
Duration                                 : 39mn 20s
Bit rate                                 : 33.9 Mbps
Width                                    : 1 920 pixels
Height                                   : 1 080 pixels
Display aspect ratio                     : 16:9
Frame rate                               : 29.970 fps
Color space                              : YUV
Chroma subsampling                       : 4:2:0
Bit depth                                : 8 bits
Scan type                                : Interlaced
Scan order                               : Top Field First
Bits/(Pixel*Frame)                       : 0.545
Stream size                              : 9.30 GiB (93%)
Color primaries                          : BT.709-5, BT.1361, IEC 61966-2-4, SMPTE RP177
Transfer characteristics                 : BT.709-5, BT.1361
Matrix coefficients                      : BT.709-5, BT.1361, IEC 61966-2-4 709, SMPTE RP177
Audio #1
ID                                       : 256 (0x100)
Menu ID                                  : 1 (0x1)
Format                                   : MPEG Audio
Format version                           : Version 1
Format profile                           : Layer 2
Codec ID                                 : 3
Duration                                 : 39mn 20s
Bit rate mode                            : Constant
Bit rate                                 : 384 Kbps
Channel(s)                               : 2 channels
Sampling rate                            : 48.0 KHz
Compression mode                         : Lossy
Delay relative to video                  : -33ms
Stream size                              : 108 MiB (1%)
Language                                 : English
Audio #2
ID                                       : 257 (0x101)
Menu ID                                  : 1 (0x1)
Format                                   : MPEG Audio
Format version                           : Version 1
Format profile                           : Layer 2
Codec ID                                 : 3
Duration                                 : 39mn 20s
Bit rate mode                            : Constant
Bit rate                                 : 384 Kbps
Channel(s)                               : 2 channels
Sampling rate                            : 48.0 KHz
Compression mode                         : Lossy
Delay relative to video                  : -33ms
Stream size                              : 108 MiB (1%)
Language                                 : English

MPEG2Repair

Sequence Frame 70741(0-X) / Time 0:39:18 :
Info: End of H.264 sequence
Sequence Summary:
File Size Processed: 10.01 GB, Play Time: 00h:39m:18s
30.00 FPS (Average), 34.77 Mbps (Average).
MPEG Audio.
0 of 0 audio frames found with errors.
0.000000 seconds of audio timestamp gaps.
End of Log
-[th]http://torrentsclub.org/pictures/fe825f60214d8ce4ee...79f60a3.png[/th] [th]http://torrentsclub.org/pictures/4a52fdc272053c0f59...9e2f6e0.png[/th] [th]http://torrentsclub.org/pictures/cff2e54771312f33a4...49c22d6.png[/th]-

[Цитировать]



Показать сообщения:    

Текущее время: 05-Дек 21:43

Часовой пояс: UTC + 3


Вы не можете начинать темы
Вы не можете отвечать на сообщения
Вы не можете редактировать свои сообщения
Вы не можете удалять свои сообщения
Вы не можете голосовать в опросах
Вы не можете прикреплять файлы к сообщениям
Вы не можете скачивать файлы

!ВНИМАНИЕ!
Сайт не предоставляет электронные версии произведений, а занимается лишь коллекционированием и каталогизацией ссылок, присылаемых и публикуемых на форуме нашими читателями. Если вы являетесь правообладателем какого-либо представленного материала и не желаете, чтобы ссылка на него находилась в нашем каталоге, свяжитесь с нами, и мы незамедлительно удалим ее. Файлы для обмена на трекере предоставлены пользователями сайта, и администрация не несет ответственности за их содержание. Просьба не заливать файлы, защищенные авторскими правами, а также файлы нелегального содержания!