[ Сегодня идет свободное скачивание без начисления Download ]


Статистика раздачи
Нет
 
   
 
Top  
 
 
-Невозможное / Lo imposible / The Impossible (2012) BDRip-«Nothing is more powerful than the human spirit.»- Русское название: Невозможное
Оригинальное название: Lo imposible / The Impossible
Год выпуска: 2012
Производство: Испания | Apaches Entertainment, Telecinco Cinema, Mediaset Espa?a
Жанр: Триллер, Драма
Перевод: Двухголосый закадровый, любительский
Озвучка / Автор перевода: den904, DeadSno, перевод Janetta
Субтитры: Вшитые отключаемые
Язык субтитров: Русский, Английский, Французкий
Режиссер: Хуан Антонио Байона
Актеры: Наоми Уоттс, Юэн МакГрегор, Том Холлэнд, Сэмюэл Джослин, Оакли Пендергаст, Марта Этура, Шенке Мёринг, Джеральдин Чаплин, Плой Хиндачоте, Жомжаои Сэ-Лим
Описание фильма:
В фильме "Невозможное / Lo imposible / The Impossible" пойдет речь о трагических событиях, разворачивающихся на фоне цунами 2004 года.
Во все времена человек был практически беззащитен перед стихиями природы, будь то ураган, тайфун, паводок, снежная лавина или цунами. И даже в наше время высокого развития технологий и создания мощных машин ситуация не изменилась. Действие этого фильма происходит в 2004 году. На город обрушивается цунами огромной силы, разрушая все, что можно разрушить. Людям остается только спасать себя и своих близких любыми путями, прилагая невероятные усилия. Здесь волей-неволей приходится раскрывать самые непредвиденные возможности своего организма и мышления. Вот именно так и становится невозможное возможным.-
Дата мировой премьеры: 9 сентября 2012
Дата российской премьеры: 14 февраля 2013, «Централ Партнершип»-Релиз от:
Продолжительность: 01:53:31
Качество видео: BDRip [LQ 720p]
Видеокодек: MPEG-4 AVC/H.264
Битрейт видео: ~ 2553 Кбит/сек
Размер кадра: 1280 x 542
Аудио : AC3 192 Кбит/сек (2ch), 48,0 КГц, 16 бит [Русский, DVO]

MediaInfo 0.7.61

Общее
Уникальный идентификатор : 186737239537359595847704415101282019079 (0x8C7C48BD1E5E9199A4231D33DF11E707)
Полное имя :\Невозможное.2012.BDRip,LQ.720p.NNM-CLUB.mkv
Формат : Matroska
Версия формата : Version 4 / Version 2
Размер файла : 2,18 Гбайт
Продолжительность : 1 ч. 53 м.
Общий поток : 2746 Кбит/сек
Название фильма : Невозможное.2012.BDRip,LQ.720p.NNM-CLUB
Дата кодирования : UTC 2013-02-10 16:01:31
Программа кодирования : mkvmerge v6.0.0 ('Coming Up For Air') built on Jan 20 2013 09:52:00
Библиотека кодирования : libebml v1.3.0 + libmatroska v1.4.0
Видео
Идентификатор : 1
Формат : AVC
Формат/Информация : Advanced Video Codec
Профиль формата : High@L4.1
Параметр CABAC формата : Да
Параметр ReFrames формата : 9 кадров
Идентификатор кодека : V_MPEG4/ISO/AVC
Продолжительность : 1 ч. 53 м.
Битрейт : 2553 Кбит/сек
Ширина : 1280 пикселей
Высота : 542 пикселя
Соотношение сторон : 2,35:1
Режим частоты кадров : Постоянный
Частота кадров : 24,000 кадра/сек
Цветовое пространство : YUV
Субдискретизация насыщенности : 4:2:0
Битовая глубина : 8 бит
Тип развёртки : Прогрессивная
Бит/(Пиксели*Кадры) : 0.153
Размер потока : 1,98 Гбайт (91%)
Заголовок : Невозможное.2012.BDRip,LQ.720p.NNM-CLUB
Библиотека кодирования : x264 core 129 r2245 bc13772
Настройки программы : cabac=1 / ref=9 / deblock=1:-3:-3 / analyse=0x3:0x133 / me=umh / subme=8 / psy=1 / psy_rd=1.00:0.15 / mixed_ref=1 / me_range=24 / chroma_me=1 / trellis=2 / 8x8dct=1 / cqm=0 / deadzone=21,11 / fast_pskip=0 / chroma_qp_offset=-3 / threads=12 / lookahead_threads=2 / sliced_threads=0 / nr=0 / decimate=1 / interlaced=0 / bluray_compat=0 / constrained_intra=0 / bframes=12 / b_pyramid=2 / b_adapt=2 / b_bias=0 / direct=3 / weightb=0 / open_gop=0 / weightp=2 / keyint=240 / keyint_min=22 / scenecut=40 / intra_refresh=0 / rc_lookahead=50 / rc=2pass / mbtree=1 / bitrate=2553 / ratetol=1.0 / qcomp=0.60 / qpmin=0 / qpmax=69 / qpstep=4 / cplxblur=20.0 / qblur=0.5 / ip_ratio=1.40 / aq=1:1.00
Язык : English
Default : Да
Forced : Нет
Аудио
Идентификатор : 2
Формат : AC-3
Формат/Информация : Audio Coding 3
Расширение режима : CM (complete main)
Параметр Endianness формата : Big
Идентификатор кодека : A_AC3
Продолжительность : 1 ч. 53 м.
Вид битрейта : Постоянный
Битрейт : 192 Кбит/сек
Каналы : 2 канала
Расположение каналов : Front: L R
Частота : 48,0 КГц
Битовая глубина : 16 бит
Метод сжатия : С потерями
Размер потока : 156 Мбайт (7%)
Заголовок : Двухголосый закадровый, любительский
Язык : Russian
Default : Да
Forced : Нет
Текст #1
Идентификатор : 3
Формат : UTF-8
Идентификатор кодека : S_TEXT/UTF8
Идентификатор кодека/Информация : UTF-8 Plain Text
Язык : Russian
Default : Нет
Forced : Нет
Текст #2
Идентификатор : 4
Формат : UTF-8
Идентификатор кодека : S_TEXT/UTF8
Идентификатор кодека/Информация : UTF-8 Plain Text
Язык : English
Default : Нет
Forced : Нет
Текст #3
Идентификатор : 5
Формат : UTF-8
Идентификатор кодека : S_TEXT/UTF8
Идентификатор кодека/Информация : UTF-8 Plain Text
Язык : French
Default : Нет
Forced : Нет

Знаете ли Вы, что...

Лента о событиях, разворачивающихся на фоне цунами 2004 года.
Скриншоты:




Время раздачи: круглогодичноИграю на аккордеоне за "Спасибо"

[Цитировать]



Показать сообщения:    

Текущее время: 07-Дек 19:15

Часовой пояс: UTC + 3


Вы не можете начинать темы
Вы не можете отвечать на сообщения
Вы не можете редактировать свои сообщения
Вы не можете удалять свои сообщения
Вы не можете голосовать в опросах
Вы не можете прикреплять файлы к сообщениям
Вы не можете скачивать файлы

!ВНИМАНИЕ!
Сайт не предоставляет электронные версии произведений, а занимается лишь коллекционированием и каталогизацией ссылок, присылаемых и публикуемых на форуме нашими читателями. Если вы являетесь правообладателем какого-либо представленного материала и не желаете, чтобы ссылка на него находилась в нашем каталоге, свяжитесь с нами, и мы незамедлительно удалим ее. Файлы для обмена на трекере предоставлены пользователями сайта, и администрация не несет ответственности за их содержание. Просьба не заливать файлы, защищенные авторскими правами, а также файлы нелегального содержания!