[ Сегодня идет свободное скачивание без начисления Download ]


Статистика раздачи
Нет
 
   
 
Top  
 
 
-VA - Trance 100-Vol. 1 (2013)- -Год: 2013Жанр: TranceПродолжительность: 05:10:01Кодек: MP3Битрейт: ~251-260 кб/с Тип битрейта: VBRТрек лист:

CD 1

Продолжительность:01:17:41
01. Armin Van Buuren ft Ana Criado - I'll Listen (Super8 & Tab Remix)
02. Arty, Nadia Ali & BT - Must Be The Love (Shogun Remix)
03. Markus Schulz with Elevation & KhoMha - Triotonic
04. Orjan Nilsen - Burana
05. Omnia - Infina
06. Josh Gabriel Presents Winter Kills - Forward Facing (Otto Coster Remix)
07. Andy Moor ft Sue McLaren - Trespass (Antillas & Dankann Remix)
08. MeHilove - Summer Vibes
09. Peter Juergens & Stefan Dabruck - Love It Again
10. Cerf, Mitiska & Jaren with Fine Taste - Ready For Go
11. Lange - Destination Anywhere
12. Signum - Centurion (Faruk Sabanci's Tripod Mix)
13. Corderoy ft Little Neve White - Run Into The Sun (Tangle & Mateusz Remix)
14. Rank 1 - 7 Instead Of 8
15. Farid - Afloat
16. Eddie Bitar & Genix ft Jennifer Rene - Drift (Eddie Bitar Vocal Mix)
17. Roger Shah ft Adrina Thorpe - Island (Antillas Club Mix)
18. W&W - Lift Off!
19. Chris Schweizer & Chris Jones - Reason
20. Dan Stone - Drive (Stoneface & Terminal Remix)
21. Aly & Fila vs John O'Callaghan - Vapourize
22. Bjorn Akesson - Gunsmoke
23. Yahel & Liya - Creatures (Paul Oakenfold Remix)
24. Robert Nickson - Spiral
25. Robert Gitelman - Children Of The Sun (Las Salinas 2012 Remix)

CD 2

Продолжительность:01:17:42
01. Christian Burns, Paul Oakenfold & JES - As We Collide
02. Hardwell ft Amba Shepherd - Apollo
03. Dash Berlin ft Emma Hewitt - Like Spinning Plates (Alexander Popov Remix)
04. Aruna - Save The Day (Tom Fall Remix)
05. Markus Schulz ft Seri - Love Rain Down (Myon & Shane 54 Summer Of Love Mix)
06. Shogun - Ufo
07. Delerium ft Sarah McLachlan - Silence (W&W vs Jonas Stenberg Remix)
08. Antillas & Dankann - Evolution
09. Ashley Wallbridge - Grenade
10. Skytech & Darius Romanowski - Another Joy
11. Tenishia & Ruben De Ronde ft Shannon Hurley - Love Survives (Flashtech Remix)
12. Rex Mundi - Steaming Waterfalls
13. Matt Darey ft Kate Louise Smith - Still Waters (Colorless Album Version)
14. Wezz Devall - The Great White Buffalo
15. Sied Van Riel ft Temper Heart - Carved By Your Hands (Wezz Devall Remilf)
16. Abstract Vision & Elite Electronic vs Broning - Relict
17. Marc Simz ft Naomie Striemer - Out Of Sight (Original Vocal Mix)
18. Tritonal - Ziziki (Tritonal Club Mix)
19. UCast - Genesis
20. Signum - The Timelord (Mark Sixma Remix)
21. Chris Metcalfe - Watching Over Me (James Dymond Remix)
22. Gary Maguire & Stereo Wildlife - Always Different
23. Aly & Fila vs Bjorn Akesson - Sand Theme (FSOE 250 Anthem)
24. Nick Callaghan & Will Atkinson - Volare Via
25. Oxygen - Am I On Your Mind

CD 3

Продолжительность:01:17:28
01. Chicane - Windbrake (Walsh & McAuley Remix)
02. Cosmic Gate & Emma Hewitt - Calm Down (Omnia Remix)
03. Armin Van Buuren ft Jan Vayne - Serenity (Andrew Rayel Aether Remix)
04. Markus Schulz ft Ana Diaz - Nothing Without Me (Beat Service Remix)
05. W&W - Moscow
06. Orjan Nilsen - Copperfield
07. Protoculture - Perpetual Motion
08. Ram Presents Gecko - Departures
09. Sunlounger & Zara Taylor - Try To Be Love (Alex Tasty Remix)
10. Heatbeat - Chow Mein (Noah Neiman Remix)
11. Yura Moonlight - Harrier
12. Phynn ft Jets Overhead - In Your Heart (Space RockerZ Remix)
13. Solarstone vs Scott Bond - 3rd Earth (Heatbeat Remix)
14. Spark7 & Sylvi - Disappear
15. Alex M.O.R.P.H. ft Shannon Hurley - Monday Morning Madness (Alexander Popov Remix)
16. Andy Moor & Betsie Larkin - Love Again
17. Adam Szabo & Willem De Roo - Lego
18. Bobina & Betsie Larkin - No Substitute For You (Dub Mix)
19. Marcel Woods - Guaba
20. Signum - First Strike (Juventa Club Mix)
21. James Dymond - Alana
22. Photographer - Airport
23. Paul Van Dyk ft Plumb - I Don't Deserve You (Giuseppe Ottaviani Remix)
24. Dash Berlin ft Kate Walsh - When You Were Around (Ferry Corsten Fix)
25. Gabriel & Dresden - Arcadia

CD 4

Продолжительность:01:17:10
01. Dash Berlin ft Emma Hewitt - Waiting (W&W Remix)
02. Rick Mitchells - Sub Zero
03. Gabriel & Dresden ft Betsie Larkin - Play It Back (Maor Levi Remix)
04. Andrew Rayel ft Jano - How Do I Know
05. Aeris ft Jess Morgan - What Do You Feel? (Re:Locate vs Robert Nickson Banging Remix)
06. Juventa - 405
07. York - In The Thunder (Purple Stories Remix)
08. Ben Gold ft The Glass Child - Fall With Me
09. Store N Forward - Roses (Club Mix)
10. Faruk Sabanci ft Cami - Awaken
11. Wach Presents Oussama Mlaouhia - Abbey (James Dymond Remix)
12. Akira Kayosa & Hugh Tolland - Muriwai (Max Graham Remix)
13. John B & Kirsty Hawkshaw - Connected (Craig Connelly Remix)
14. Planet Perfecto - Bullet In The Gun (Gary Maguire Remix)
15. Vladimir Bashmakov - I Remember You
16. Ashley Wallbridge ft Elleah - Keep The Fire (Sean Tyas Remix)
17. M.I.K.E. - Any Direction (M.I.K.E. vs Revero Club Edit)
18. Emma Hewitt - Rewind (Mikkas Remix)
19. Matt Bukovski - Blisfull Time
20. Sonic Element - Destruction
21. Tonny Nesse - Hole In The Sky (Arctic Moon Remix)
22. Mark Burton vs Sunlounger & Zara Taylor - Try Understatement To Be Love (Armin Van Buuren Mashup)
23. Falcon - Aquila
24. Tenishia - Where Do We Begin (Andrew Rayel Remix)
25. Mike Foyle vs Signalrunners - Love Theme Dusk (Mike's Broken Record Mix)
-

MI

Общее
Полное имя : E:\VA-Trance 100- Vol. 1 (4CD)-2013\101-va-trance 100 2013 vol 1 cd1.cue
Размер файла : 2,85 Кбайт
Общее
Полное имя : E:\VA-Trance 100- Vol. 1 (4CD)-2013\101-va-trance 100 2013 vol 1 cd1.mp3
Формат : MPEG Audio
Размер файла : 144 Мбайт
Продолжительность : 1 ч. 17 м.
Режим общего битрейта : Переменный
Общий поток : 260 Кбит/сек
Альбом : Trance 100 2013 Vol. 1
Часть/Положение : 1
Часть/Всего : 4
Трек : Trance 100 2013 Vol. 1 CD1
Трек/Положение : 01
Трек/Всего : 01
Исполнитель : VA
Жанр : Trance
Дата записи : 2013
Библиотека кодирования : LAME3.98r
Аудио
Формат : MPEG Audio
Версия формата : Version 1
Профиль формата : Layer 3
Режим : Joint stereo
Продолжительность : 1 ч. 17 м.
Вид битрейта : Переменный
Битрейт : 260 Кбит/сек
Минимальный битрейт : 32,0 Кбит/сек
Каналы : 2 канала
Частота : 44,1 КГц
Метод сжатия : С потерями
Размер потока : 144 Мбайт (100%)
Библиотека кодирования : LAME3.98r
Настройки программы : -m j -V 0 -q 0 -lowpass 19.5 --vbr-new -b 32
Общее
Полное имя : E:\VA-Trance 100- Vol. 1 (4CD)-2013\201-va-trance 100 2013 vol 1 cd2.cue
Размер файла : 2,96 Кбайт
Общее
Полное имя : E:\VA-Trance 100- Vol. 1 (4CD)-2013\201-va-trance 100 2013 vol 1 cd2.mp3
Формат : MPEG Audio
Размер файла : 142 Мбайт
Продолжительность : 1 ч. 17 м.
Режим общего битрейта : Переменный
Общий поток : 256 Кбит/сек
Альбом : Trance 100 2013 Vol. 1
Часть/Положение : 2
Часть/Всего : 4
Трек : Trance 100 2013 Vol. 1 CD2
Трек/Положение : 01
Трек/Всего : 01
Исполнитель : VA
Жанр : Trance
Дата записи : 2013
Библиотека кодирования : LAME3.98r
Аудио
Формат : MPEG Audio
Версия формата : Version 1
Профиль формата : Layer 3
Режим : Joint stereo
Продолжительность : 1 ч. 17 м.
Вид битрейта : Переменный
Битрейт : 256 Кбит/сек
Минимальный битрейт : 32,0 Кбит/сек
Каналы : 2 канала
Частота : 44,1 КГц
Метод сжатия : С потерями
Размер потока : 142 Мбайт (100%)
Библиотека кодирования : LAME3.98r
Настройки программы : -m j -V 0 -q 0 -lowpass 19.5 --vbr-new -b 32
Общее
Полное имя : E:\VA-Trance 100- Vol. 1 (4CD)-2013\301-va-trance 100 2013 vol 1 cd3.cue
Размер файла : 2,85 Кбайт
Общее
Полное имя : E:\VA-Trance 100- Vol. 1 (4CD)-2013\301-va-trance 100 2013 vol 1 cd3.mp3
Формат : MPEG Audio
Размер файла : 139 Мбайт
Продолжительность : 1 ч. 17 м.
Режим общего битрейта : Переменный
Общий поток : 251 Кбит/сек
Альбом : Trance 100 2013 Vol. 1
Часть/Положение : 3
Часть/Всего : 4
Трек : Trance 100 2013 Vol. 1 CD3
Трек/Положение : 01
Трек/Всего : 01
Исполнитель : VA
Жанр : Trance
Дата записи : 2013
Библиотека кодирования : LAME3.98r
Аудио
Формат : MPEG Audio
Версия формата : Version 1
Профиль формата : Layer 3
Режим : Joint stereo
Продолжительность : 1 ч. 17 м.
Вид битрейта : Переменный
Битрейт : 251 Кбит/сек
Минимальный битрейт : 32,0 Кбит/сек
Каналы : 2 канала
Частота : 44,1 КГц
Метод сжатия : С потерями
Размер потока : 139 Мбайт (100%)
Библиотека кодирования : LAME3.98r
Настройки программы : -m j -V 0 -q 0 -lowpass 19.5 --vbr-new -b 32
Общее
Полное имя : E:\VA-Trance 100- Vol. 1 (4CD)-2013\401-va-trance 100 2013 vol 1 cd4.cue
Размер файла : 2,96 Кбайт
Общее
Полное имя : E:\VA-Trance 100- Vol. 1 (4CD)-2013\401-va-trance 100 2013 vol 1 cd4.mp3
Формат : MPEG Audio
Размер файла : 139 Мбайт
Продолжительность : 1 ч. 17 м.
Режим общего битрейта : Переменный
Общий поток : 252 Кбит/сек
Альбом : Trance 100 2013 Vol. 1
Часть/Положение : 4
Часть/Всего : 4
Трек : Trance 100 2013 Vol. 1 CD4
Трек/Положение : 01
Трек/Всего : 01
Исполнитель : VA
Жанр : Trance
Дата записи : 2013
Библиотека кодирования : LAME3.98r
Аудио
Формат : MPEG Audio
Версия формата : Version 1
Профиль формата : Layer 3
Режим : Joint stereo
Продолжительность : 1 ч. 17 м.
Вид битрейта : Переменный
Битрейт : 252 Кбит/сек
Минимальный битрейт : 32,0 Кбит/сек
Каналы : 2 канала
Частота : 44,1 КГц
Метод сжатия : С потерями
Размер потока : 139 Мбайт (100%)
Библиотека кодирования : LAME3.98r
Настройки программы : -m j -V 0 -q 0 -lowpass 19.5 --vbr-new -b 32
-Время раздачи: С 16.00 до 21.00 по Москве.

[Цитировать]



Показать сообщения:    

Текущее время: 08-Дек 03:16

Часовой пояс: UTC + 3


Вы не можете начинать темы
Вы не можете отвечать на сообщения
Вы не можете редактировать свои сообщения
Вы не можете удалять свои сообщения
Вы не можете голосовать в опросах
Вы не можете прикреплять файлы к сообщениям
Вы не можете скачивать файлы

!ВНИМАНИЕ!
Сайт не предоставляет электронные версии произведений, а занимается лишь коллекционированием и каталогизацией ссылок, присылаемых и публикуемых на форуме нашими читателями. Если вы являетесь правообладателем какого-либо представленного материала и не желаете, чтобы ссылка на него находилась в нашем каталоге, свяжитесь с нами, и мы незамедлительно удалим ее. Файлы для обмена на трекере предоставлены пользователями сайта, и администрация не несет ответственности за их содержание. Просьба не заливать файлы, защищенные авторскими правами, а также файлы нелегального содержания!