[ Сегодня идет свободное скачивание без начисления Download ]


Статистика раздачи
Нет
 
   
 
 
 
Колдунья / Bewitched«Be warned. Be ready.»
Год выпуска: 2005
Страна: США
Производство: Bewitched, Columbia Pictures Corporation, Red Wagon Productions
Жанр: Фэнтези, Мелодрама, Комедия
Режиссер: Нора Эфрон
В ролях: Николь Кидман, Уилл Феррелл, Ширли Маклейн, Майкл Кейн, Джейсон Шварцман, Хезер Бернс, Кристин Ченоуэт
Перевод: Литовский
Субтитры: Отсутствуют
Описание: Карьера ранее популярного актера Джека Уайтта идет на спад. Пытаясь возродить былую славу, Джек берется за выгодный проект — киноремейк классического телесериала о мужчине, женившемся на колдунье. Актер требует, чтобы в паре с ним играла не звезда, а малоизвестная актриса, не способная его затмить. Случайная знакомая Изабель Бигелоу кажется идеальным вариантом. Но никто из съемочной группы не знает, что Изабель — и в самом деле колдунья…
[kp]79562[/kp] [imdb]tt0374536[/imdb]
Качество: HDRip
Продолжительность: 01:37:53
Формат: AVI
Видео кодек: XviD
Аудио кодек: AC3
Видео: 720x400 (16:9), 25 fps, XviD ~1657 kbps avg, 0,230 bit/pixel
Аудио: 48 kHz, AC3, 6 ch, ~448.00 kbps avg
Премьера (мир): 24 июня 2005
Премьера (РФ): 18 августа 2005, «Каскад»

Media Info

Видео
Идентификатор                            : 0
Формат                                   : MPEG-4 Visual
Профиль формата                          : Advanced [email protected]
Параметр BVOP формата                    : 1
Параметр QPel формата                    : Нет
Параметр GMC формата                     : Без точки перехода
Параметр матрицы формата                 : Default (MPEG)
Идентификатор кодека                     : XVID
Идентификатор кодека/Подсказка           : XviD
Продолжительность                        : 1 ч. 37 м.
Битрейт                                  : 1657 Кбит/сек
Ширина                                   : 720 пикселей
Высота                                   : 400 пикселей
Соотношение сторон                       : 16:9
Частота кадров                           : 25,000 кадров/сек
Цветовое пространство                    : YUV
Субдискретизация насыщенности            : 4:2:0
Битовая глубина                          : 8 бит
Тип развёртки                            : Прогрессивная
Метод сжатия                             : С потерями
Бит/(Пиксели*Кадры)                      : 0.230
Размер потока                            : 1,13 Гбайт (78%)
Библиотека кодирования                   : XviD 1.2.0.dev47 (UTC 2006-11-01)
Аудио
Идентификатор                            : 1
Формат                                   : AC-3
Формат/Информация                        : Audio Coding 3
Расширение режима                        : CM (complete main)
Идентификатор кодека                     : 2000
Продолжительность                        : 1 ч. 37 м.
Вид битрейта                             : Постоянный
Битрейт                                  : 448 Кбит/сек
Каналы                                   : 6 каналов
Расположение каналов                     : Front: L C R, Side: L R, LFE
Частота                                  : 48,0 КГц
Битовая глубина                          : 16 бит
Метод сжатия                             : С потерями
Размер потока                            : 313 Мбайт (21%)
Выравнивание                             : Разделение по промежуткам
Продолжительность промежутка             : 40  мс. (1,00 видеокадр)
Время предзагрузки промежутка            : 500  мс.

Скриншоты



[Цитировать]



Показать сообщения:    

Текущее время: 04-Дек 19:22

Часовой пояс: UTC + 3


Вы не можете начинать темы
Вы не можете отвечать на сообщения
Вы не можете редактировать свои сообщения
Вы не можете удалять свои сообщения
Вы не можете голосовать в опросах
Вы не можете прикреплять файлы к сообщениям
Вы не можете скачивать файлы

!ВНИМАНИЕ!
Сайт не предоставляет электронные версии произведений, а занимается лишь коллекционированием и каталогизацией ссылок, присылаемых и публикуемых на форуме нашими читателями. Если вы являетесь правообладателем какого-либо представленного материала и не желаете, чтобы ссылка на него находилась в нашем каталоге, свяжитесь с нами, и мы незамедлительно удалим ее. Файлы для обмена на трекере предоставлены пользователями сайта, и администрация не несет ответственности за их содержание. Просьба не заливать файлы, защищенные авторскими правами, а также файлы нелегального содержания!