[ Сегодня идет свободное скачивание без начисления Download ]


Статистика раздачи
Нет
 
   
 
Top  
 
 
-Психо / Psycho (1960) DVDRip- Русское название: Психо
Оригинальное название: Psycho
Год выпуска: 1960
Жанр: Ужасы, Триллер, Детектив
Страна: США-Описание фильма:
Это одна из самых знаменитых картин мирового кинематографа, безусловный шедевр жанра криминального триллера, фильм, который считается визитной карточкой великого режиссера, мастера саспенса Альфреда Хичкока. Сцена убийства в ванной изучается во всех киношколах мира, как образец совершенной кинематографической техники. Молодая женщина, сотрудница одной из фирм по торговле недвижимостью, сбегает с большой суммой денег, которые ей доверили положить в банк. Стараясь избежать встречи с полицией, она останавливается в тихом мотеле, не подозревая, что здесь ей грозит еще большая опасность...-Режиссер: Альфред Хичкок
Актеры: Энтони Перкинс, Вера Майлз, Джон Гэвин, Джанет Ли, Мартин Болсам, Джон МакИнтайр, Саймон Оукленд, Фрэнк Альбертсон, Патриция Хичкок, Вон Тейлор-Продолжительность: 01:43:57
Перевод: Двуголосый закадровый
Язык субтитров: Русский
Вид субтитров: Отдельным файлом-
Дата мировой премьеры: 16 июня 1960
Дата российской премьеры: 25 июля 2013, «Каравелла DDC»
Ограничения:
18+-Видеокодек: Xvid
Битрейт видео: ~975 Кбит/с
Размер кадра: 640 x 336
Качество видео: DVDRip
Аудио:
#1: MP3, 2 ch, 128 Кбит/с
(Русский)
#2: MP3, 2 ch, 96 Кбит/с (Английский)

Медиаинфо

General
Complete name                    : G:\Psycho\Psycho.avi
Format                           : AVI
Format/Info                      : Audio Video Interleave
File size                        : 903 MiB
Duration                         : 1h 43mn
Overall bit rate                 : 1 214 Kbps
Writing application              : VirtualDubMod 1.5.10.2 (build 2540/release)
Writing library                  : VirtualDubMod build 2540/release
Video
ID                               : 0
Format                           : MPEG-4 Visual
Format profile                   : Advanced [email protected]
Format settings, BVOP            : Yes
Format settings, QPel            : No
Format settings, GMC             : No warppoints
Format settings, Matrix          : Custom
Codec ID                         : XVID
Codec ID/Hint                    : XviD
Duration                         : 1h 43mn
Bit rate                         : 975 Kbps
Width                            : 640 pixels
Height                           : 336 pixels
Display aspect ratio             : 1.905
Frame rate                       : 25.000 fps
Resolution                       : 8 bits
Colorimetry                      : 4:2:0
Scan type                        : Progressive
Bits/(Pixel*Frame)               : 0.181
Stream size                      : 725 MiB (80%)
Writing library                  : XviD 1.1.2 (UTC 2006-11-01)
Audio #1
ID                               : 1
Format                           : MPEG Audio
Format version                   : Version 1
Format profile                   : Layer 3
Mode                             : Joint stereo
Format_Settings_ModeExtension    : MS Stereo
Codec ID                         : 55
Codec ID/Hint                    : MP3
Duration                         : 1h 43mn
Bit rate mode                    : Constant
Bit rate                         : 128 Kbps
Channel(s)                       : 2 channels
Sampling rate                    : 48.0 KHz
Stream size                      : 95.2 MiB (11%)
Alignment                        : Aligned on interleaves
Interleave, duration             : 40 ms (1.00 video frame)
Interleave, preload duration     : 504 ms
Audio #2
ID                               : 2
Format                           : MPEG Audio
Format version                   : Version 1
Format profile                   : Layer 3
Mode                             : Joint stereo
Format_Settings_ModeExtension    : MS Stereo
Codec ID                         : 55
Codec ID/Hint                    : MP3
Duration                         : 1h 43mn
Bit rate mode                    : Constant
Bit rate                         : 96.0 Kbps
Channel(s)                       : 2 channels
Sampling rate                    : 32.0 KHz
Stream size                      : 71.4 MiB (8%)
Alignment                        : Aligned on interleaves
Interleave, duration             : 40 ms (1.00 video frame)
Interleave, preload duration     : 504 ms
Writing library                  : LAME3.90.3
General
Complete name                    : G:\Psycho\Psycho.srt
Format                           : SubRip
File size                        : 74.4 KiB
Text
Format                           : SubRip
Скриншоты:

Время раздачи: 24/7 - круглосуточно

[Цитировать]



Показать сообщения:    

Текущее время: 04-Дек 06:51

Часовой пояс: UTC + 3


Вы не можете начинать темы
Вы не можете отвечать на сообщения
Вы не можете редактировать свои сообщения
Вы не можете удалять свои сообщения
Вы не можете голосовать в опросах
Вы не можете прикреплять файлы к сообщениям
Вы не можете скачивать файлы

!ВНИМАНИЕ!
Сайт не предоставляет электронные версии произведений, а занимается лишь коллекционированием и каталогизацией ссылок, присылаемых и публикуемых на форуме нашими читателями. Если вы являетесь правообладателем какого-либо представленного материала и не желаете, чтобы ссылка на него находилась в нашем каталоге, свяжитесь с нами, и мы незамедлительно удалим ее. Файлы для обмена на трекере предоставлены пользователями сайта, и администрация не несет ответственности за их содержание. Просьба не заливать файлы, защищенные авторскими правами, а также файлы нелегального содержания!