[ Сегодня идет свободное скачивание без начисления Download ]


Статистика раздачи
Нет
 
   
 
Top  
 
 
-Черный дрозд / Deadfall (2012) [H.264/720p-LQ] BDRip-«От прошлого не скрыться»- Русское название: Черный дрозд
Оригинальное название: Deadfall
Год выпуска: 2012
Производство: США / Magnolia Pictures, StudioCanal, 2929 Productions
Жанр: Триллер, Драма, Криминал
Перевод: Дублированный [Лицензия] R5 + Оригинал (Английский)
Продолжительность: 01:34:38
Субтитры: Вшитые отключаемые
Язык субтитров: Русский, Английский-Дата мировой премьеры: 22 апреля 2012
Дата российской премьеры: 13 декабря 2012, «Top Film Distribution»-Режиссер: Штефан Руцовицки
Актеры: Эрик Бана, Оливия Уайлд, Чарли Ханнэм, Сисси Спейсек, Крис Кристофферсон, Джейсон Кавалье, Кевин Десфоссес, Ален Голем, Эллисон Грэхэм, Патрик Кертон-Описание фильма:
Эддисон и Лиза в бегах после неудачного ограбления казино. Бывший боксер Джей направляется домой, чтобы провести День Благодарения в кругу семьи. Судьба неумолимо сводит этих людей, чтобы они встретили Зло и вступили в схватку с ним.- -Качество видео: BDRip
Формат: MKV
Видеокодек: MPEG-4 AVC/H.264
Видео: 1280x544/2.35:1/23.976 fps/4 515 Kbps/0.270 Bits/(Pixel*Frame)
Аудио: Русский 48 kHz, AC3 Dolby Digital, 3/2 (L,C,R,l,r) + LFE ch, ~ 448 kbps avg
Аудио: Английский 48 kHz, AC3 Dolby Digital, 3/2 (L,C,R,l,r) + LFE ch, ~ 448 kbps avg
-

MediaInfo:

General
Unique ID : 207723355257773385964512147024614217938 (0x9C46102106EF2BDC8DBB03C8531758D2)
Complete name : C:\Черный дрозд Deadfall (2012) [H.264. 720p-LQ].mkv
Format : Matroska
Format version : Version 2
File size : 3.57 GiB
Duration : 1h 34mn
Overall bit rate : 5 399 Kbps
Movie name : [email protected]
Encoded date : UTC 2013-02-13 16:57:54
Writing application : mkvmerge v4.0.0 ('The Stars were mine') built on Jun 6 2010 16:18:42
Writing library : libebml v1.0.0 + libmatroska v1.0.0
Video
ID : 1
Format : AVC
Format/Info : Advanced Video Codec
Format profile : [email protected]
Format settings, CABAC : Yes
Format settings, ReFrames : 11 frames
Codec ID : V_MPEG4/ISO/AVC
Duration : 1h 34mn
Bit rate : 4 515 Kbps
Width : 1 280 pixels
Height : 544 pixels
Display aspect ratio : 2.35:1
Frame rate mode : Constant
Frame rate : 23.976 fps
Color space : YUV
Chroma subsampling : 4:2:0
Bit depth : 8 bits
Scan type : Progressive
Bits/(Pixel*Frame) : 0.270
Stream size : 2.91 GiB (81%)
Writing library : x264 core 119 r2106 07efeb4
Encoding settings : cabac=1 / ref=11 / deblock=1:-2:-1 / analyse=0x3:0x113 / me=umh / subme=10 / psy=1 / psy_rd=1.10:0.08 / mixed_ref=1 / me_range=32 / chroma_me=1 / trellis=2 / 8x8dct=1 / cqm=0 / deadzone=21,11 / fast_pskip=0 / chroma_qp_offset=-3 / threads=6 / sliced_threads=0 / nr=0 / decimate=0 / interlaced=0 / bluray_compat=0 / constrained_intra=0 / bframes=11 / b_pyramid=2 / b_adapt=2 / b_bias=0 / direct=3 / weightb=1 / open_gop=0 / weightp=2 / keyint=240 / keyint_min=24 / scenecut=40 / intra_refresh=0 / rc=2pass / mbtree=0 / bitrate=4515 / ratetol=1.0 / qcomp=0.70 / qpmin=0 / qpmax=69 / qpstep=4 / cplxblur=20.0 / qblur=0.5 / ip_ratio=1.40 / pb_ratio=1.30 / aq=1:0.90
Language : English
Default : No
Forced : No
Audio #1
ID : 2
Format : AC-3
Format/Info : Audio Coding 3
Mode extension : CM (complete main)
Format settings, Endianness : Big
Codec ID : A_AC3
Duration : 1h 34mn
Bit rate mode : Constant
Bit rate : 448 Kbps
Channel(s) : 6 channels
Channel positions : Front: L C R, Side: L R, LFE
Sampling rate : 48.0 KHz
Bit depth : 16 bits
Compression mode : Lossy
Stream size : 303 MiB (8%)
Title : Дубляж R5
Language : Russian
Default : Yes
Forced : No
Audio #2
ID : 3
Format : AC-3
Format/Info : Audio Coding 3
Mode extension : CM (complete main)
Format settings, Endianness : Big
Codec ID : A_AC3
Duration : 1h 34mn
Bit rate mode : Constant
Bit rate : 448 Kbps
Channel(s) : 6 channels
Channel positions : Front: L C R, Side: L R, LFE
Sampling rate : 48.0 KHz
Bit depth : 16 bits
Compression mode : Lossy
Stream size : 303 MiB (8%)
Title : Оригинал
Language : English
Default : No
Forced : No
Text #1
ID : 4
Format : UTF-8
Codec ID : S_TEXT/UTF8
Codec ID/Info : UTF-8 Plain Text
Title : full
Language : Russian
Default : Yes
Forced : No
Text #2
ID : 5
Format : UTF-8
Codec ID : S_TEXT/UTF8
Codec ID/Info : UTF-8 Plain Text
Title : full
Language : English
Default : No
Forced : No

x264 log:

avs [info]: 1280x544p 1:1 @ 2500000/104271 fps (cfr)
x264 [info]: using SAR=1/1
x264 [info]: using cpu capabilities: MMX2 SSE2Fast SSSE3 FastShuffle SSE4.2
x264 [info]: profile High, level 4.1
x264 [info]: frame I:976 Avg QP:15.10 size:113698
x264 [info]: frame P:28578 Avg QP:17.32 size: 40293
x264 [info]: frame B:106590 Avg QP:19.45 size: 18127
x264 [info]: consecutive B-frames: 3.0% 2.1% 7.7% 11.8% 13.8% 43.9% 5.2% 2.9% 3.8% 1.7% 1.7% 2.2%
x264 [info]: mb I I16..4: 20.2% 63.2% 16.6%
x264 [info]: mb P I16..4: 1.8% 18.4% 1.3% P16..4: 30.3% 24.1% 12.9% 0.0% 0.0% skip:11.2%
x264 [info]: mb B I16..4: 0.1% 2.0% 0.2% B16..8: 40.5% 14.9% 4.7% direct: 7.4% skip:30.2% L0:48.2% L1:43.0% BI: 8.8%
x264 [info]: 8x8 transform intra:83.6% inter:63.8%
x264 [info]: direct mvs spatial:98.7% temporal:1.3%
x264 [info]: coded y,uvDC,uvAC intra: 91.7% 83.8% 63.1% inter: 37.4% 26.2% 10.8%
x264 [info]: i16 v,h,dc,p: 52% 9% 17% 22%
x264 [info]: i8 v,h,dc,ddl,ddr,vr,hd,vl,hu: 9% 8% 11% 10% 13% 12% 13% 11% 13%
x264 [info]: i4 v,h,dc,ddl,ddr,vr,hd,vl,hu: 8% 8% 4% 9% 16% 15% 15% 12% 13%
x264 [info]: i8c dc,h,v,p: 47% 20% 17% 16%
x264 [info]: Weighted P-Frames: Y:11.0% UV:5.4%
x264 [info]: ref P L0: 40.2% 9.6% 19.4% 7.5% 6.5% 4.3% 4.1% 2.2% 2.2% 1.7% 1.8% 0.3% 0.0%
x264 [info]: ref B L0: 60.0% 15.4% 8.4% 4.8% 3.5% 2.9% 2.3% 1.6% 0.9% 0.4%
x264 [info]: ref B L1: 89.3% 10.7%
x264 [info]: kb/s:4500.83
Скриншоты:
Время раздачи: С 23:00 до 8:30 (24/7 - круглосуточно)

[Цитировать]

Топик был перенесен из форума Новинки кинопроката в форум Новинки кинопроката (HD Video)


AJIekSaNdRoVi4

Топик был перенесен из форума Новинки кинопроката (HD Video) в форум Зарубежное кино (HD Video)
Bootch



Показать сообщения:    

Текущее время: 05-Дек 05:29

Часовой пояс: UTC + 3


Вы не можете начинать темы
Вы не можете отвечать на сообщения
Вы не можете редактировать свои сообщения
Вы не можете удалять свои сообщения
Вы не можете голосовать в опросах
Вы не можете прикреплять файлы к сообщениям
Вы не можете скачивать файлы

!ВНИМАНИЕ!
Сайт не предоставляет электронные версии произведений, а занимается лишь коллекционированием и каталогизацией ссылок, присылаемых и публикуемых на форуме нашими читателями. Если вы являетесь правообладателем какого-либо представленного материала и не желаете, чтобы ссылка на него находилась в нашем каталоге, свяжитесь с нами, и мы незамедлительно удалим ее. Файлы для обмена на трекере предоставлены пользователями сайта, и администрация не несет ответственности за их содержание. Просьба не заливать файлы, защищенные авторскими правами, а также файлы нелегального содержания!