[ Today is free to download without increasing Download ]

DL-List and Torrent activity
-Хорошо быть тихоней / The Perks of Being a Wallflower (2012) HDRip- Русское название: Хорошо быть тихоней
Оригинальное название: The Perks of Being a Wallflower
Год выпуска: 2012
Производство: США
Жанр: Драма, Мелодрама
Перевод: Дублированный [лицензия]-Режиссер: Стивен Чбоски
Актеры: Логан Лерман, Эмма Уотсон, Эзра Миллер, Дилан МакДермотт, Кейт Уолш, Патрик Де Ледебур, Джонни Симмонс, Брайан Балзерини, Том Крушевски, Нина Добрев-Описание фильма:
История о Чарли, ученике старшей школы в Питтсбурге, стеснительном и непопулярном. На наших глазах Чарли взрослеет, меняется круг его общения, меняется его мнение о мире.- -Дата мировой премьеры: 8 сентября 2012
Дата российской премьеры: 20 сентября 2012, «West»
Дата выхода DVD релиза: 12 февраля 2013, «West Video»-Продолжительность: 01:42:40
Качество видео: HDRip-Видеокодек: Xvid
Битрейт видео: ~814 Кбит/сек
Размер кадра: 720x400
Аудиокодек: MP3 (2 ch)
Битрейт аудио: 128 Кбит/сек


Полное имя : D:\Торрент раздача\Horosho.byt.tihonej.2012.D.700MB.HDRip.avi
Формат : AVI
Формат/Информация : Audio Video Interleave
Размер файла : 699 Мбайт
Продолжительность : 1 ч. 42 м.
Общий поток : 951 Кбит/сек
Программа кодирования : VirtualDubMod (build 2540/release)
Библиотека кодирования : VirtualDub build 32661/release
Идентификатор : 0
Формат : MPEG-4 Visual
Профиль формата : Advanced Simple@L5
Параметр BVOP формата : 2
Параметр QPel формата : Нет
Параметр GMC формата : Без точки перехода
Параметр матрицы формата : Default (H.263)
Режим смешивания : Сжатый битовый поток
Идентификатор кодека : XVID
Идентификатор кодека/Подсказка : XviD
Продолжительность : 1 ч. 42 м.
Битрейт : 814 Кбит/сек
Ширина : 720 пикселей
Высота : 400 пикселей
Соотношение сторон : 16:9
Частота кадров : 23,976 кадра/сек
Цветовое пространство : YUV
Субдискретизация насыщенности : 4:2:0
Битовая глубина : 8 бит
Тип развёртки : Прогрессивная
Метод сжатия : С потерями
Бит/(Пиксели*Кадры) : 0.118
Размер потока : 598 Мбайт (86%)
Библиотека кодирования : XviD 64
Идентификатор : 1
Формат : MPEG Audio
Версия формата : Version 1
Профиль формата : Layer 3
Режим : Joint stereo
Расширение режима : MS Stereo
Идентификатор кодека : 55
Идентификатор кодека/Подсказка : MP3
Продолжительность : 1 ч. 42 м.
Вид битрейта : Постоянный
Битрейт : 128 Кбит/сек
Каналы : 2 канала
Частота : 48,0 КГц
Метод сжатия : С потерями
Размер потока : 94,0 Мбайт (13%)
Выравнивание : Разделение по промежуткам
Продолжительность промежутка : 42 мс. (1,00 видеокадр)
Время предзагрузки промежутка : 500 мс.
Время раздачи: 24/7


Display posts:    

Current time is: 28-Oct 22:44

All times are UTC + 3

You cannot post new topics in this forum
You cannot reply to topics in this forum
You cannot edit your posts in this forum
You cannot delete your posts in this forum
You cannot vote in polls in this forum
You cannot attach files in this forum
You cannot download files in this forum

The site does not give electronic versions of products, and is engaged only in a collecting and cataloguing of the references sent and published at a forum by our readers. If you are the legal owner of any submitted material and do not wish that the reference to it was in our catalogue, contact us and we shall immediately remove her. Files for an exchange on tracker are given by users of a site, and the administration does not bear the responsibility for their maintenance. The request to not fill in the files protected by copyrights, and also files of the illegal maintenance!