[ Сегодня идет свободное скачивание без начисления Download ]


Статистика раздачи
Нет
 
   
 
Top  
 
 
-Хорошо быть тихоней / The Perks of Being a Wallflower (2012) HDRip- Русское название: Хорошо быть тихоней
Оригинальное название: The Perks of Being a Wallflower
Год выпуска: 2012
Производство: США
Жанр: Драма, Мелодрама
Перевод: Дублированный [лицензия]-Режиссер: Стивен Чбоски
Актеры: Логан Лерман, Эмма Уотсон, Эзра Миллер, Дилан МакДермотт, Кейт Уолш, Патрик Де Ледебур, Джонни Симмонс, Брайан Балзерини, Том Крушевски, Нина Добрев-Описание фильма:
История о Чарли, ученике старшей школы в Питтсбурге, стеснительном и непопулярном. На наших глазах Чарли взрослеет, меняется круг его общения, меняется его мнение о мире.- -Дата мировой премьеры: 8 сентября 2012
Дата российской премьеры: 20 сентября 2012, «West»
Дата выхода DVD релиза: 12 февраля 2013, «West Video»-Продолжительность: 01:42:40
Качество видео: HDRip-Видеокодек: Xvid
Битрейт видео: ~814 Кбит/сек
Размер кадра: 720x400
Аудиокодек: MP3 (2 ch)
Битрейт аудио: 128 Кбит/сек

MediaInfo

Общее
Полное имя : D:\Торрент раздача\Horosho.byt.tihonej.2012.D.700MB.HDRip.avi
Формат : AVI
Формат/Информация : Audio Video Interleave
Размер файла : 699 Мбайт
Продолжительность : 1 ч. 42 м.
Общий поток : 951 Кбит/сек
Программа кодирования : VirtualDubMod 1.5.10.2 (build 2540/release)
Библиотека кодирования : VirtualDub build 32661/release
Видео
Идентификатор : 0
Формат : MPEG-4 Visual
Профиль формата : Advanced [email protected]
Параметр BVOP формата : 2
Параметр QPel формата : Нет
Параметр GMC формата : Без точки перехода
Параметр матрицы формата : Default (H.263)
Режим смешивания : Сжатый битовый поток
Идентификатор кодека : XVID
Идентификатор кодека/Подсказка : XviD
Продолжительность : 1 ч. 42 м.
Битрейт : 814 Кбит/сек
Ширина : 720 пикселей
Высота : 400 пикселей
Соотношение сторон : 16:9
Частота кадров : 23,976 кадра/сек
Цветовое пространство : YUV
Субдискретизация насыщенности : 4:2:0
Битовая глубина : 8 бит
Тип развёртки : Прогрессивная
Метод сжатия : С потерями
Бит/(Пиксели*Кадры) : 0.118
Размер потока : 598 Мбайт (86%)
Библиотека кодирования : XviD 64
Аудио
Идентификатор : 1
Формат : MPEG Audio
Версия формата : Version 1
Профиль формата : Layer 3
Режим : Joint stereo
Расширение режима : MS Stereo
Идентификатор кодека : 55
Идентификатор кодека/Подсказка : MP3
Продолжительность : 1 ч. 42 м.
Вид битрейта : Постоянный
Битрейт : 128 Кбит/сек
Каналы : 2 канала
Частота : 48,0 КГц
Метод сжатия : С потерями
Размер потока : 94,0 Мбайт (13%)
Выравнивание : Разделение по промежуткам
Продолжительность промежутка : 42 мс. (1,00 видеокадр)
Время предзагрузки промежутка : 500 мс.
Скриншоты:
Время раздачи: 24/7

[Цитировать]



Показать сообщения:    

Текущее время: 05-Дек 01:26

Часовой пояс: UTC + 3


Вы не можете начинать темы
Вы не можете отвечать на сообщения
Вы не можете редактировать свои сообщения
Вы не можете удалять свои сообщения
Вы не можете голосовать в опросах
Вы не можете прикреплять файлы к сообщениям
Вы не можете скачивать файлы

!ВНИМАНИЕ!
Сайт не предоставляет электронные версии произведений, а занимается лишь коллекционированием и каталогизацией ссылок, присылаемых и публикуемых на форуме нашими читателями. Если вы являетесь правообладателем какого-либо представленного материала и не желаете, чтобы ссылка на него находилась в нашем каталоге, свяжитесь с нами, и мы незамедлительно удалим ее. Файлы для обмена на трекере предоставлены пользователями сайта, и администрация не несет ответственности за их содержание. Просьба не заливать файлы, защищенные авторскими правами, а также файлы нелегального содержания!