[ Сегодня идет свободное скачивание без начисления Download ]


Статистика раздачи
Нет
 
   
 
Top  
 
 
-Черный дрозд / Deadfall (2012) HDRip
«От прошлого не скрыться»
- Русское название: Черный дрозд
Оригинальное название: Deadfall
Год выпуска: 2012
Производство: 2929 Productions / StudioCanal / Madhouse Entertainment / Mutual Film Corporation / Magnolia Pictures [США]
Жанр: Триллер, драма, криминал
Перевод: Дублированный [лицензия]
Субтитры: Отсутствуют
Режиссер: Штефан Руцовицки
Актеры: Эрик Бана, Оливия Уайлд, Чарли Ханнэм, Сисси Спейсек, Крис Кристофферсон, Джейсон Кавалье, Кевин Десфоссес, Ален Голем, Эллисон Грэхэм, Патрик Кертон
Описание фильма:
Эддисон и Лайза в бегах после неудачного ограбления казино. Бывший боксер Джей направляется домой, чтобы провести День Благодарения в кругу семьи. Судьба неумолимо сводит этих людей, чтобы они встретили Зло и вступили в схватку с ним.
Дата мировой премьеры: 22 апреля 2012
Дата российской премьеры: 13 декабря 2012, «Top Film Distribution»

Рейтинг R - Детям до 17 лет обязательно присутствие родителей
Возраст 16+ - Зрителям, достигшим 16 лет
Продолжительность: 01:34:38
Качество видео: HDRip
Видео: XviD, 720x304, ~ 1742 kbps, Bit/Pixel: 0.332
Аудио: AC3 5.1, 448 kbps [Русский]

MediaInfo...

Полное имя : D:\Черный.дрозд-Deadfall.(2012).HDRip.avi
Формат : AVI
Формат/Информация : Audio Video Interleave
Размер файла : 1,45 Гбайт
Продолжительность : 1 ч. 34 м.
Общий поток : 2199 Кбит/сек
Программа кодирования : VirtualDubMod 1.5.10.2 (build 2540/release)
Видео
Идентификатор : 0
Формат : MPEG-4 Visual
Профиль формата : Advanced Simple@L5
Параметр BVOP формата : 2
Параметр QPel формата : Нет
Параметр GMC формата : Без точки перехода
Параметр матрицы формата : Выборочная
Идентификатор кодека : XVID
Идентификатор кодека/Подсказка : XviD
Продолжительность : 1 ч. 34 м.
Битрейт : 1742 Кбит/сек
Ширина : 720 пикселей
Высота : 304 пикселя
Соотношение сторон : 2,35:1
Частота кадров : 23,976 кадра/сек
Цветовое пространство : YUV
Субдискретизация насыщенности : 4:2:0
Битовая глубина : 8 бит
Тип развёртки : Прогрессивная
Метод сжатия : С потерями
Бит/(Пиксели*Кадры) : 0.332
Размер потока : 1,15 Гбайт (79%)
Библиотека кодирования : XviD 64
Аудио
Идентификатор : 1
Формат : AC-3
Формат/Информация : Audio Coding 3
Расширение режима : CM (complete main)
Параметр Endianness формата : Big
Идентификатор кодека : 2000
Продолжительность : 1 ч. 34 м.
Вид битрейта : Постоянный
Битрейт : 448 Кбит/сек
Каналы : 6 каналов
Расположение каналов : Front: L C R, Side: L R, LFE
Частота : 48,0 КГц
Битовая глубина : 16 бит
Метод сжатия : С потерями
Размер потока : 303 Мбайт (20%)
Выравнивание : Разделение по промежуткам
Продолжительность промежутка : 42 мс. (1,00 видеокадр)
Время предзагрузки промежутка : 500 мс.
Скриншоты:


Время раздачи: 24/7 (до 10 скачавших)

[Цитировать]

Топик был перенесен из форума Новинки кинопроката в форум Триллер
Henkok



Показать сообщения:    

Текущее время: 07-Дек 21:23

Часовой пояс: UTC + 3


Вы не можете начинать темы
Вы не можете отвечать на сообщения
Вы не можете редактировать свои сообщения
Вы не можете удалять свои сообщения
Вы не можете голосовать в опросах
Вы не можете прикреплять файлы к сообщениям
Вы не можете скачивать файлы

!ВНИМАНИЕ!
Сайт не предоставляет электронные версии произведений, а занимается лишь коллекционированием и каталогизацией ссылок, присылаемых и публикуемых на форуме нашими читателями. Если вы являетесь правообладателем какого-либо представленного материала и не желаете, чтобы ссылка на него находилась в нашем каталоге, свяжитесь с нами, и мы незамедлительно удалим ее. Файлы для обмена на трекере предоставлены пользователями сайта, и администрация не несет ответственности за их содержание. Просьба не заливать файлы, защищенные авторскими правами, а также файлы нелегального содержания!