[ Сегодня идет свободное скачивание без начисления Download ]


Статистика раздачи
Нет
 
   
 
Top  
 
 
-Хорошо быть тихоней / The Perks of Being a Wallflower (2012) HDRip
«Будь фильтром, а не губкой!»
- Русское название: Хорошо быть тихоней
Оригинальное название: The Perks of Being a Wallflower
Год выпуска: 2012
Производство: США / Summit Entertainment, Mr. Mudd
Жанр: Драма, Мелодрама
Перевод: Дублированный [лицензия]
Субтитры: Отсутствуют
Режиссер: Стивен Чбоски
Актеры: Логан Лерман, Эмма Уотсон, Эзра Миллер, Дилан МакДермотт, Кейт Уолш, Патрик Де Ледебур, Джонни Симмонс, Брайан Балзерини, Том Крушевски, Нина Добрев и др.
Описание фильма:
История о Чарли, ученике старшей школы в Питтсбурге, стеснительном и непопулярном. На наших глазах Чарли взрослеет, меняется круг его общения, меняется его мнение о мире.


Дата мировой премьеры: 8 сентября 2012
Дата российской премьеры: 20 сентября 2012, «West»
Релиз на DVD и Blu-Ray: 12 февраля 2013, «West Video»
Продолжительность: 01:42:40
Качество видео: HDRip
Видеокодек: Xvid
Битрейт видео: ~1945 kbps
Размер кадра: 720x400
Аудиокодек: AC3 5.1
Аудио #1: AC3 Dolby Digital, 3/2 (L,C,R,l,r) + LFE ch, 448 kbps, 48 kHz DUB (Русский)
Аудио #2: AC3 Dolby Digital, 3/2 (L,C,R,l,r) + LFE ch, 448 kbps, 48 kHz Original (Английский)-

MediaInfo

General
Complete name                            : H:\FILMS\Horosho.byt.tihonej.2012.D.HDRip.avi
Format                                   : AVI
Format/Info                              : Audio Video Interleave
Format profile                           : OpenDML
File size                                : 2.05 GiB
Duration                                 : 1h 42mn
Overall bit rate                         : 2 860 Kbps
Movie name                               : Horosho.byt.tihonej.2012.D.HDRip
Genre                                    : Drama | Romance
Writing application                      : VirtualDubMod 1.5.10.2 (build 2540/release)
Original source form/Name                : Movie
Video
ID                                       : 0
Format                                   : MPEG-4 Visual
Format profile                           : Advanced [email protected]
Format settings, BVOP                    : 2
Format settings, QPel                    : No
Format settings, GMC                     : No warppoints
Format settings, Matrix                  : Custom
Codec ID                                 : XVID
Codec ID/Hint                            : XviD
Duration                                 : 1h 42mn
Bit rate                                 : 1 945 Kbps
Width                                    : 720 pixels
Height                                   : 400 pixels
Display aspect ratio                     : 16:9
Frame rate                               : 23.976 fps
Color space                              : YUV
Chroma subsampling                       : 4:2:0
Bit depth                                : 8 bits
Scan type                                : Progressive
Compression mode                         : Lossy
Bits/(Pixel*Frame)                       : 0.282
Stream size                              : 1.39 GiB (68%)
Writing library                          : XviD 64
Audio #1
ID                                       : 1
Format                                   : AC-3
Format/Info                              : Audio Coding 3
Mode extension                           : CM (complete main)
Format settings, Endianness              : Big
Codec ID                                 : 2000
Duration                                 : 1h 42mn
Bit rate mode                            : Constant
Bit rate                                 : 448 Kbps
Channel(s)                               : 6 channels
Channel positions                        : Front: L C R, Side: L R, LFE
Sampling rate                            : 48.0 KHz
Bit depth                                : 16 bits
Compression mode                         : Lossy
Stream size                              : 329 MiB (16%)
Alignment                                : Split accross interleaves
Interleave, duration                     : 42 ms (1.00 video frame)
Interleave, preload duration             : 500 ms
Audio #2
ID                                       : 2
Format                                   : AC-3
Format/Info                              : Audio Coding 3
Mode extension                           : CM (complete main)
Format settings, Endianness              : Big
Codec ID                                 : 2000
Duration                                 : 1h 42mn
Bit rate mode                            : Constant
Bit rate                                 : 448 Kbps
Channel(s)                               : 6 channels
Channel positions                        : Front: L C R, Side: L R, LFE
Sampling rate                            : 48.0 KHz
Bit depth                                : 16 bits
Compression mode                         : Lossy
Stream size                              : 329 MiB (16%)
Alignment                                : Split accross interleaves
Interleave, duration                     : 42 ms (1.00 video frame)
Interleave, preload duration             : 500 ms
-Скриншоты:
-Время раздачи: Круглосуточно (до первых сидов, далее по возможности)-

[Цитировать]



Показать сообщения:    

Текущее время: 05-Дек 17:40

Часовой пояс: UTC + 3


Вы не можете начинать темы
Вы не можете отвечать на сообщения
Вы не можете редактировать свои сообщения
Вы не можете удалять свои сообщения
Вы не можете голосовать в опросах
Вы не можете прикреплять файлы к сообщениям
Вы не можете скачивать файлы

!ВНИМАНИЕ!
Сайт не предоставляет электронные версии произведений, а занимается лишь коллекционированием и каталогизацией ссылок, присылаемых и публикуемых на форуме нашими читателями. Если вы являетесь правообладателем какого-либо представленного материала и не желаете, чтобы ссылка на него находилась в нашем каталоге, свяжитесь с нами, и мы незамедлительно удалим ее. Файлы для обмена на трекере предоставлены пользователями сайта, и администрация не несет ответственности за их содержание. Просьба не заливать файлы, защищенные авторскими правами, а также файлы нелегального содержания!