[ Сегодня идет свободное скачивание без начисления Download ]


Статистика раздачи
Нет
 
   
 
Top  
 
 
Грязная кампания за честные выборы [Расширенная версия] / The Campaign [Extended Cut]«Хуже нас - лучше нет!»
Год выпуска: 2012
Страна: США
Производство: Everyman Pictures, Gary Sanchez Productions
Жанр: комедия
Режиссер: Джей Роуч | Jay Roach
В ролях: Уилл Феррелл (Cam Brady), Зак Галифианакис (Marty Huggins), Джейсон Судейкис (Mitch), Дилан МакДермотт (Tim Wattley), Кэтрин ЛаНаса (Rose Brady), Сара Бэйкер (Mitzi Huggins), Джон Литгоу (Glenn Motch), Дэн Эйкройд (Wade Motch), Брайан Кокс (Raymond Huggins), Карен Маруяма (Mrs. Yao)
Перевод: Профессиональный (многоголосый, закадровый)
Субтитры: Отсутствуют
Описание: Два конкурирующих политика Кэм Брэди и Марти Хаггинс, пытаются победить на выборах, чтобы представлять свой небольшой штат Северная Каролина в Палате представителей США. Каждый при этом использует свои методы для достижения наилучшего результата.
[kp]575249[/kp] [imdb]tt1790886[/imdb]
Качество: BDRip-AVC
Продолжительность: 01:35:39
Формат: MKV
Видео кодек: H.26x
Аудио кодек: AC3
Видео: 928x522 (16:9), 23,976 fps, H.264 ~1 845 kbps avg, 0.151 bit/pixel
Аудио: 48.0 KHz, 6 channels (Front: L C R, Side: L R, LFE), 384.00 kbps avg | Профессиональный (многоголосый закадровый)
Премьера (мир): 4 августа 2012
Премьера (РФ): 22 ноября 2012, «Каро-Премьер»

Media Info

General
Unique ID                                : 211997283975412426477331754446496779683 (0x9F7D311575B7CF158173196A1FACCDA3)
Complete name                            : D:\Gryaznaya kampaniya za chestnyye vybory.Extended.BDRip-AVC.by Matroska.mkv
Format                                   : Matroska
Format version                           : Version 2
File size                                : 1.46 GiB
Duration                                 : 1h 35mn
Overall bit rate                         : 2 180 Kbps
Movie name                               : Gryaznaya kampaniya za chestnyye vybory.Extended.BDRip-AVC.by dOrOgOi
Encoded date                             : UTC 2012-11-18 10:18:35
Writing application                      : mkvmerge v5.8.0 ('No Sleep / Pillow') built on Sep  2 2012 15:37:04
Writing library                          : libebml v1.2.3 + libmatroska v1.3.0
Video
ID                                       : 1
Format                                   : AVC
Format/Info                              : Advanced Video Codec
Format profile                           : [email protected]
Format settings, CABAC                   : Yes
Format settings, ReFrames                : 14 frames
Codec ID                                 : V_MPEG4/ISO/AVC
Duration                                 : 1h 35mn
Bit rate                                 : 1 752 Kbps
Nominal bit rate                         : 1 845 Kbps
Width                                    : 928 pixels
Height                                   : 522 pixels
Display aspect ratio                     : 16:9
Frame rate mode                          : Constant
Frame rate                               : 23.976 fps
Color space                              : YUV
Chroma subsampling                       : 4:2:0
Bit depth                                : 8 bits
Scan type                                : Progressive
Bits/(Pixel*Frame)                       : 0.151
Stream size                              : 1.17 GiB (80%)
Title                                    : Gryaznaya kampaniya za chestnyye vybory.Extended.BDRip-AVC.by dOrOgOi
Writing library                          : x264 core 125 r2208 d9d2288
Encoding settings                        : cabac=1 / ref=14 / deblock=1:-2:-2 / analyse=0x3:0x133 / me=umh / subme=11 / psy=1 / psy_rd=1.00:0.15 / mixed_ref=1 / me_range=48 / chroma_me=1 / trellis=2 / 8x8dct=1 / cqm=0 / deadzone=21,11 / fast_pskip=0 / chroma_qp_offset=-3 / threads=12 / lookahead_threads=2 / sliced_threads=0 / nr=0 / decimate=1 / interlaced=0 / bluray_compat=0 / constrained_intra=0 / bframes=12 / b_pyramid=2 / b_adapt=2 / b_bias=0 / direct=3 / weightb=1 / open_gop=0 / weightp=2 / keyint=250 / keyint_min=23 / scenecut=40 / intra_refresh=0 / rc_lookahead=40 / rc=2pass / mbtree=0 / bitrate=1845 / ratetol=1.0 / qcomp=0.60 / qpmin=0 / qpmax=69 / qpstep=4 / cplxblur=20.0 / qblur=0.5 / vbv_maxrate=25000 / vbv_bufsize=25000 / nal_hrd=none / ip_ratio=1.40 / pb_ratio=1.30 / aq=2:1.00
Language                                 : English
Default                                  : Yes
Forced                                   : No
Matrix coefficients                      : BT.709
Audio
ID                                       : 2
Format                                   : AC-3
Format/Info                              : Audio Coding 3
Mode extension                           : CM (complete main)
Format settings, Endianness              : Big
Codec ID                                 : A_AC3
Duration                                 : 1h 35mn
Bit rate mode                            : Constant
Bit rate                                 : 384 Kbps
Channel(s)                               : 6 channels
Channel positions                        : Front: L C R, Side: L R, LFE
Sampling rate                            : 48.0 KHz
Bit depth                                : 16 bits
Compression mode                         : Lossy
Stream size                              : 263 MiB (18%)
Title                                    : MVO
Language                                 : Russian
Default                                  : Yes
Forced                                   : No

Скриншоты

[Цитировать]

Топик был перенесен из форума Новинки кинопроката в форум Комедия
JerseY



Показать сообщения:    

Текущее время: 06-Дек 05:59

Часовой пояс: UTC + 3


Вы не можете начинать темы
Вы не можете отвечать на сообщения
Вы не можете редактировать свои сообщения
Вы не можете удалять свои сообщения
Вы не можете голосовать в опросах
Вы не можете прикреплять файлы к сообщениям
Вы не можете скачивать файлы

!ВНИМАНИЕ!
Сайт не предоставляет электронные версии произведений, а занимается лишь коллекционированием и каталогизацией ссылок, присылаемых и публикуемых на форуме нашими читателями. Если вы являетесь правообладателем какого-либо представленного материала и не желаете, чтобы ссылка на него находилась в нашем каталоге, свяжитесь с нами, и мы незамедлительно удалим ее. Файлы для обмена на трекере предоставлены пользователями сайта, и администрация не несет ответственности за их содержание. Просьба не заливать файлы, защищенные авторскими правами, а также файлы нелегального содержания!