[ Сегодня идет свободное скачивание без начисления Download ]


Статистика раздачи
Нет
 
   
 
Top  
 
 
-Арабские приключения (Арабские ночи) / Arabian Nights (2000) DVDRip [H.264]- Страна: США
Русское название: Арабские приключения (Арабские ночи)
Оригинальное название: Arabian Nights
Год выпуска: 2000
Жанр: Фэнтези, Приключения, Семейный, Сказка для взрослых
Описание фильма:
Обезумевший от страха султан, которому во всем видится измена, должен жениться, чтобы сохранить трон. Дочь его визиря, Шехерезада, влюбившаяся в султана еще когда они оба были подростками, вызывается стать его супругой, хотя и знает, что ее ждет смерть. Чтобы отвлечь мужа от кошмарных снов и подозрений, она начинает рассказывать ему сказки…
Режиссер: Стив Бэррон / Steve Barron
Актеры: Мили Авитал, Алан Бейтс, Джеймс Фрейн, Чеки Карио, Джейсон Скотт Ли, Джон Легуизамо, Ванесса Мэй, Дюгрэй Скотт, Руфус Сьюэлл, Джим Картер
Продолжительность: 02:57:25 (2 серии в одном файле)
Перевод: Многоголосый закадровый

Качество: DVDRip by Froz09
Формат: MKV
Видео: x264, 700x574@765x574 (4:3), 25 fps, 1700 kbps, Bits/(Pixel*Frame): 0.169
Аудио 1: AC3, 48 kHz, 448 kbps, 6 ch, Русский, Многоголосый закадровый
Аудио 2: AC3, 48 kHz, 192 kbps, 2 ch, Original, English
Субтитры: Русские
Навигация по главам: да (главы поименованы)
Сэмпл: Ссылка

Mediainfo

General
Complete name : Арабские приключения (Арабские ночи). Arabian Nights. 2000. (прикл. фэнтези).DVDRip-AVC.mkv
Format : Matroska
Format version : Version 2
File size : 2.90 GiB
Duration : 2h 57mn
Overall bit rate : 2 342 Kbps
Movie name : Арабские приключения / Арабские ночи / Arabian nights (2000, DVD9 CP-Digital) DVDRip
Encoded date : UTC 2011-03-31 18:17:45
Writing application : mkvmerge v4.6.0 ('Still Crazy After All These Years') built on Mar 10 2011 02:50:32
Writing library : libebml v1.2.0 + libmatroska v1.1.0
Video
ID : 1
Format : AVC
Format/Info : Advanced Video Codec
Format profile : High@L4.1
Format settings, CABAC : Yes
Format settings, ReFrames : 16 frames
Codec ID : V_MPEG4/ISO/AVC
Duration : 2h 57mn
Bit rate : 1 700 Kbps
Width : 700 pixels
Height : 574 pixels
Display aspect ratio : 4:3
Frame rate mode : Constant
Frame rate : 25.000 fps
Color space : YUV
Chroma subsampling : 4:2:0
Bit depth : 8 bits
Scan type : Progressive
Bits/(Pixel*Frame) : 0.169
Stream size : 2.05 GiB (71%)
Writing library : x264 core 114 r1913 5fd3dce
Encoding settings : cabac=1 / ref=16 / deblock=1:0:0 / analyse=0x3:0x133 / me=umh / subme=10 / psy=1 / psy_rd=1.00:0.00 / mixed_ref=1 / me_range=24 / chroma_me=1 / trellis=2 / 8x8dct=1 / cqm=0 / deadzone=21,11 / fast_pskip=0 / chroma_qp_offset=-2 / threads=3 / sliced_threads=0 / nr=0 / decimate=1 / interlaced=0 / constrained_intra=0 / bframes=8 / b_pyramid=2 / b_adapt=2 / b_bias=0 / direct=3 / weightb=1 / open_gop=0 / weightp=2 / keyint=250 / keyint_min=25 / scenecut=40 / intra_refresh=0 / rc_lookahead=60 / rc=2pass / mbtree=1 / bitrate=1700 / ratetol=1.0 / qcomp=0.60 / qpmin=10 / qpmax=51 / qpstep=4 / cplxblur=20.0 / qblur=0.5 / ip_ratio=1.40 / aq=1:1.00
Language : English
Default : Yes
Forced : No
Audio #1
ID : 2
Format : AC-3
Format/Info : Audio Coding 3
Mode extension : CM (complete main)
Format settings, Endianness : Big
Codec ID : A_AC3
Duration : 2h 57mn
Bit rate mode : Constant
Bit rate : 448 Kbps
Channel(s) : 6 channels
Channel positions : Front: L C R, Side: L R, LFE
Sampling rate : 48.0 KHz
Bit depth : 16 bits
Compression mode : Lossy
Stream size : 569 MiB (19%)
Title : MVO
Language : Russian
Default : Yes
Forced : No
Audio #2
ID : 3
Format : AC-3
Format/Info : Audio Coding 3
Mode extension : CM (complete main)
Format settings, Endianness : Big
Codec ID : A_AC3
Duration : 2h 57mn
Bit rate mode : Constant
Bit rate : 192 Kbps
Channel(s) : 2 channels
Channel positions : Front: L R
Sampling rate : 48.0 KHz
Bit depth : 16 bits
Compression mode : Lossy
Stream size : 244 MiB (8%)
Language : English
Default : No
Forced : No
Text
ID : 4
Format : UTF-8
Codec ID : S_TEXT/UTF8
Codec ID/Info : UTF-8 Plain Text
Language : Russian
Default : Yes
Forced : No
Menu
00:00:00.000 : :01. Безумный султан
00:08:37.440 : :02. Приговоренная невеста
00:15:41.040 : :03. Черный Кади
00:25:18.120 : :04. "Сезам, откройся!"
00:35:05.160 : :05. Утро
00:39:29.400 : :06. Погасшая лампа
00:51:46.320 : :07. Баг Бак
01:02:06.000 : :08. Суд
01:06:28.560 : :09. Аладдин
01:17:50.040 : :10. Волшебная лампа
01:29:10.040 : :11. Всемогущщий Аладдин
01:36:14.640 : :12. Свадьба аннулирована
01:47:30.000 : :13. Разоблачение Аладдина
01:56:24.240 : :14. Состязание джиннов
02:04:30.120 : :15. Притчи учат побеждать
02:10:05.400 : :16. Султан-бродяга
02:17:22.320 : :17. Последняя шутка султана
02:24:05.160 : :18. Три брата
02:29:40.440 : :19. Подзорная труба
02:36:48.360 : :20. Яблоко жизни
02:40:49.200 : :21. Ковер-самолет
02:47:22.440 : :22. Истории учат жить
02:53:09.840 : :23. Победа
02:56:27.960 : :24. Заключительные титры

От автора рипа

Исходник (DVD9, CP-Digital). Похоже был неправильно транскодирован с забугорного NTSC в PAL (двойной интерлейс), поэтому местами присутствует смаз движения, как и на других раздачах. При обработке были перепробованы разные деинтерлейсеры, у всех получалось "нос вытащишь - хвост увязнет". В итоге остановился на yadif.

Моё мнение о фильме.

Несмотря на то, что фильм снят для ТВ, да и еще в 2000 году, он смотрится просто великолепно. Мотивы "1000 и одной ночи", отличный грим и неплохие спецэффекты. А также хорошая актерская игра, интересные персонажи.
Рекомендую к просмотру.
Скриншоты:


Время раздачи: С 10:00 до 17:00 (мск)

[Цитировать]



Показать сообщения:    

Текущее время: 08-Дек 17:10

Часовой пояс: UTC + 3


Вы не можете начинать темы
Вы не можете отвечать на сообщения
Вы не можете редактировать свои сообщения
Вы не можете удалять свои сообщения
Вы не можете голосовать в опросах
Вы не можете прикреплять файлы к сообщениям
Вы не можете скачивать файлы

!ВНИМАНИЕ!
Сайт не предоставляет электронные версии произведений, а занимается лишь коллекционированием и каталогизацией ссылок, присылаемых и публикуемых на форуме нашими читателями. Если вы являетесь правообладателем какого-либо представленного материала и не желаете, чтобы ссылка на него находилась в нашем каталоге, свяжитесь с нами, и мы незамедлительно удалим ее. Файлы для обмена на трекере предоставлены пользователями сайта, и администрация не несет ответственности за их содержание. Просьба не заливать файлы, защищенные авторскими правами, а также файлы нелегального содержания!