[ Сегодня идет свободное скачивание без начисления Download ]


Статистика раздачи
Нет
 
   
 
Top  
 
 
-На цепи / Chained (2012) BDRip- Русское название: На цепи
Оригинальное название: Chained
Год выпуска: 2012
Производство: Канада | Envision Media Arts, Myriad Pictures, RGB Productions
Жанр: Ужасы, Tриллер
Продолжительность: 01:34:11
Перевод: Профессиональный многоголосый [Baibako]
Перевод: Lub_a
Озвучка: Татьяна Оболевич, Лира Грим, Дим Димыч и Сергей Корчак
Сведение: Vitall Digitall
Субтитры: отсутствуют-Дата мировой премьеры: 5 августа 2012-Режиссер: Дженнифер Чэмберс Линч-Сценарий: Дженнифер Чэмберс Линч, Дамиан О'Доннелл
Продюсер: Крэйг Андерсон, Ронда Бэйкер, Дэвид Бьюлоу
Актеры: Винсент Д'Онофрио, Джулия Ормонд, Имон Фэррен, Джина Филипс, Джейк Уэбер, Конор Лесли, Ивэн Бёрд, Эми Матисио, Шеннон Джардин, Джоди Садвоски-Описание фильма:
Восьмилетний паренек Тим и его мать подсаживаются в такси к Бобу — невменяемому водителю, как раз подыскивающего себе новую жертву. После убийства женщины Тим становится марионеткой в руках психа, вынуждающего его хоронить тела. Хватит ли подростку мужества разорвать ужасную связь судьбы, все крепче стягивающую его с убийцей…- -Формат: AVI
Качество видео: BDRip-Видеокодек: Xvid
Видео: XviD, 688x288 (2.40:1), 23.976 fps, ~978 kbps, 0.204 bpp
Аудио: MP3, 48 kHz, 2 ch, 128 kbps Русский

Знаете ли вы, что...

• Первоначально фильм получил рейтинг NC-17 от MPAA за «несколько сцен откровенного насилия», но позже фильм был отредактирован для получения рейтинга R за «особо волнующие и садистские сцены насилия, включая кровавые убийства и изнасилования, а так же за грубые выражения и повышенную сексуальность».
• Дженнифер Чэмберс Линч и Винсент Д’Онофрио заявили, что они предпочли бы, чтобы название этого фильма было «Rabbit» (Кролик).
• В сцене, где Боб бросает камни в Рэбита, Винсент Д’Онофрио на самом деле кидал губки в форме камней в Ивэна Бёрда.
• Камео режиссера — Дженнифер Чэмберс Линч сыграла в фильме ведущую кулинарного шоу на ТВ.

MediaInfo:

General
Complete name : J:\На цепи Chained (2012) 745MB.avi
Format : AVI
Format/Info : Audio Video Interleave
File size : 745 MiB
Duration : 1h 34mn
Overall bit rate : 1 106 Kbps
Writing application : VirtualDubMod 1.5.10.3 | www.virtualdub-fr.org || (build 2550/release)
Writing library : VirtualDubMod build 2550/release
Video
ID : 0
Format : MPEG-4 Visual
Format profile : Advanced Simple@L5
Format settings, BVOP : 1
Format settings, QPel : No
Format settings, GMC : No warppoints
Format settings, Matrix : Custom
Codec ID : XVID
Codec ID/Hint : XviD
Duration : 1h 34mn
Bit rate : 969 Kbps
Width : 688 pixels
Height : 288 pixels
Display aspect ratio : 2.40:1
Frame rate : 23.976 fps
Color space : YUV
Chroma subsampling : 4:2:0
Bit depth : 8 bits
Scan type : Progressive
Compression mode : Lossy
Bits/(Pixel*Frame) : 0.204
Stream size : 653 MiB (88%)
Writing library : XviD 65
Audio
ID : 1
Format : MPEG Audio
Format version : Version 1
Format profile : Layer 3
Mode : Joint stereo
Codec ID : 55
Codec ID/Hint : MP3
Duration : 1h 34mn
Bit rate mode : Constant
Bit rate : 128 Kbps
Channel(s) : 2 channels
Sampling rate : 48.0 KHz
Compression mode : Lossy
Stream size : 86.2 MiB (12%)
Alignment : Aligned on interleaves
Interleave, duration : 42 ms (1.00 video frame)
Interleave, preload duration : 504 ms
Writing library : LAME3.99r
Encoding settings : -m j -V 4 -q 0 -lowpass 17 -b 128
Скриншоты:
Время раздачи: До 150 Скачавших

[Цитировать]



Показать сообщения:    

Текущее время: 11-Дек 11:04

Часовой пояс: UTC + 3


Вы не можете начинать темы
Вы не можете отвечать на сообщения
Вы не можете редактировать свои сообщения
Вы не можете удалять свои сообщения
Вы не можете голосовать в опросах
Вы не можете прикреплять файлы к сообщениям
Вы не можете скачивать файлы

!ВНИМАНИЕ!
Сайт не предоставляет электронные версии произведений, а занимается лишь коллекционированием и каталогизацией ссылок, присылаемых и публикуемых на форуме нашими читателями. Если вы являетесь правообладателем какого-либо представленного материала и не желаете, чтобы ссылка на него находилась в нашем каталоге, свяжитесь с нами, и мы незамедлительно удалим ее. Файлы для обмена на трекере предоставлены пользователями сайта, и администрация не несет ответственности за их содержание. Просьба не заливать файлы, защищенные авторскими правами, а также файлы нелегального содержания!