[ Сегодня идет свободное скачивание без начисления Download ]


Статистика раздачи
Нет
 
   
 
Top  
 
 
-Демонический секс / Demon Sex (2005) DVDRip-
Русское название: Демонический секс
Оригинальное название: Demon Sex
Год выпуска: 2005
Жанр: Фантастика
Описание фильма:
Когда ученые обнаруживают древний череп пришельца, начинается кровавая битва за выживание всей планеты. Ученые надеются использовать передовую ДНК для пользы человечества, и они начинают проводить эксперименты на гибриде человека и инопланетянина. Сами же пришельцы намерены заполучить супер-ДНК, чтобы продолжать свое существование и размножаться.
Не желая привлекать к своей миссии внимание, они трансформируются в восхитительных красавиц, единственная цель которых состоит в том, чтобы соблазнить ученых и получить секретную формулу. Но если страстный секс с людьми не принесет желаемых результатов, то инопланетяне начнут жестокую резню, которая, в конечном счете, закончится уничтожением всего человечества.
Режиссер: Грэг Левольт
Актеры: Бринк Стивенс, Веспер Алмаси, Тьюзди Корен, Тоби Даммит, Шон О`Бэннон, Оливия Сэйнт, Брент Рокман
Продолжительность: 01:26:57
Перевод: Одноголосый закадровый

Видеокодек: Xvid
Битрейт видео: ~990 kbps
Размер кадра: 624x352
Качество видео: DVDRip
Аудиокодек: MP3,2ch
Битрейт аудио: 128Kbps

Рецензия, отзыв о фильме

Пришельцы используют как мужиков, так и баб. Гены человека, смешанные с ДНК демонов, привнесут на свет новое существо, способное к нормальному воспроизводству. В общем-то благая цель имеет весьма неприятные последствия для землян-мужиков – их во время секса убивают. А дальше нашу цивилизацию ждут гораздо более страшные вещи...Ужас!

MI:

Общее
Полное имя : D:\Archyv\Films\Demon Sex (2005).avi
Формат : AVI
Формат/Информация : Audio Video Interleave
Размер файла : 702 Мбайт
Продолжительность : 1 ч. 26 м.
Общий поток : 1128 Кбит/сек
Название фильма : Demon Sex (2005)
Программа кодирования : VirtualDubModRus 1.5.10.2 (build 2540/release)VirtualDubMod build 2540/release
Правообладатель : uralmix
Видео
Идентификатор : 0
Формат : MPEG-4 Visual
Профиль формата : Advanced [email protected]
Параметр BVOP формата : 2
Параметр QPel формата : Нет
Параметр GMC формата : Без точки перехода
Параметр матрицы формата : Default (H.263)
Идентификатор кодека : XVID
Идентификатор кодека/Подсказка : XviD
Продолжительность : 1 ч. 26 м.
Битрейт : 991 Кбит/сек
Ширина : 624 пикселя
Высота : 352 пикселя
Соотношение сторон : 16:9
Частота кадров : 23,976 кадра/сек
Цветовое пространство : YUV
Субдискретизация насыщенности : 4:2:0
Битовая глубина : 8 бит
Тип развёртки : Прогрессивная
Метод сжатия : С потерями
Бит/(Пиксели*Кадры) : 0.188
Размер потока : 616 Мбайт (88%)
Библиотека кодирования : XviD 1.2.1 (UTC 2008-12-04)
Аудио
Идентификатор : 1
Формат : MPEG Audio
Версия формата : Version 1
Профиль формата : Layer 3
Идентификатор кодека : 55
Идентификатор кодека/Подсказка : MP3
Продолжительность : 1 ч. 26 м.
Вид битрейта : Постоянный
Битрейт : 128 Кбит/сек
Каналы : 2 канала
Частота : 48,0 КГц
Метод сжатия : С потерями
Размер потока : 79,6 Мбайт (11%)
Выравнивание : Соединение по промежуткам
Продолжительность промежутка : 42 мс. (1,00 видеокадр)
Время предзагрузки промежутка : 504 мс.
Язык : 5
Скриншоты:
Время раздачи: с 6:00 до 22:00 (GMT +2)

[Цитировать]



Показать сообщения:    

Текущее время: 04-Дек 09:12

Часовой пояс: UTC + 3


Вы не можете начинать темы
Вы не можете отвечать на сообщения
Вы не можете редактировать свои сообщения
Вы не можете удалять свои сообщения
Вы не можете голосовать в опросах
Вы не можете прикреплять файлы к сообщениям
Вы не можете скачивать файлы

!ВНИМАНИЕ!
Сайт не предоставляет электронные версии произведений, а занимается лишь коллекционированием и каталогизацией ссылок, присылаемых и публикуемых на форуме нашими читателями. Если вы являетесь правообладателем какого-либо представленного материала и не желаете, чтобы ссылка на него находилась в нашем каталоге, свяжитесь с нами, и мы незамедлительно удалим ее. Файлы для обмена на трекере предоставлены пользователями сайта, и администрация не несет ответственности за их содержание. Просьба не заливать файлы, защищенные авторскими правами, а также файлы нелегального содержания!