[ Сегодня идет свободное скачивание без начисления Download ]


Статистика раздачи
Нет
 
   
 
Top  
 
 
-Переполох в общаге 2: Семестр на море / Dorm Daze 2 (2006) HDRip Русское название: Переполох в общаге 2: Семестр на море
Оригинальное название: Dorm Daze 2
Год выпуска: 2006
Жанр: Комедия
Описание фильма: Сумасшедшие приключения студентов университета Биллингсли продолжаются! Следующая остановка — круизный лайнер Surveyor. Судно на время превращается в учебную аудиторию. «Семестр на море» должен начаться с остановки на тропическом острове Сан Парадизо, где ведутся интересные археологические раскопки. Капитан и команда лайнера надолго запомнят этих шумных пассажиров!
Режиссер: Дэвид Хилленбрэнд, Скотт Хилленбрэнд
Актеры: Гейбл Карр, Патрик Кэйси, Патрик Кавано, Джеймс ДеБелло, Марайа Делфино, Тони Денмен, Ларри Дрэйк, Даниель Фишел, Вида Гуерра, Джереми Ховард
Продолжительность: 01:40:21
Перевод: Дублированный

Дата мировой премьеры: 5 сентября 2006
Дата российской премьеры: 14 декабря 2006, «Lizard Cinema»
Видеокодек: Xvid
Битрейт видео: ~1680 kbps
Размер кадра: 720x400
Качество видео: HDRip
Аудиокодек: AC3 5.1
Битрейт аудио: 384 kbps
&

MediaInfo

Общее
Полное имя : F:\Роздачи\Dorm Daze 2.2006.HDRip.avi
Формат : AVI
Формат/Информация : Audio Video Interleave
Размер файла : 1,45 Гбайт
Продолжительность : 1 ч. 40 м.
Общий поток : 2073 Кбит/сек
Программа кодирования : VirtualDubMod 1.5.10.3 (build 2550/release)
Библиотека кодирования : VirtualDubMod build 2550/release
Правообладатель : rip by Rulya74
Видео
Идентификатор : 0
Формат : MPEG-4 Visual
Профиль формата : Advanced Simple@L5
Параметр BVOP формата : 1
Параметр QPel формата : Нет
Параметр GMC формата : Без точки перехода
Параметр матрицы формата : Выборочная
Режим смешивания : Сжатый битовый поток
Идентификатор кодека : XVID
Идентификатор кодека/Подсказка : XviD
Продолжительность : 1 ч. 40 м.
Битрейт : 1680 Кбит/сек
Ширина : 720 пикселей
Высота : 400 пикселей
Соотношение сторон : 16:9
Частота кадров : 24,000 кадра/сек
Цветовое пространство : YUV
Субдискретизация насыщенности : 4:2:0
Битовая глубина : 8 бит
Тип развёртки : Прогрессивная
Метод сжатия : С потерями
Бит/(Пиксели*Кадры) : 0.243
Размер потока : 1,18 Гбайт (81%)
Библиотека кодирования : XviD 65
Аудио
Идентификатор : 1
Формат : AC-3
Формат/Информация : Audio Coding 3
Расширение режима : CM (complete main)
Параметр Endianness формата : Big
Идентификатор кодека : 2000
Продолжительность : 1 ч. 40 м.
Вид битрейта : Постоянный
Битрейт : 384 Кбит/сек
Каналы : 6 каналов
Расположение каналов : Front: L C R, Side: L R, LFE
Частота : 48,0 КГц
Битовая глубина : 16 бит
Метод сжатия : С потерями
Размер потока : 276 Мбайт (19%)
Выравнивание : Разделение по промежуткам
Продолжительность промежутка : 42 мс. (1,00 видеокадр)
Время предзагрузки промежутка : 500 мс.
Заголовок : Дублированный
Скриншоты:

Время раздачи: с 8:00 до 23:00

[Цитировать]



Показать сообщения:    

Текущее время: 10-Дек 09:53

Часовой пояс: UTC + 3


Вы не можете начинать темы
Вы не можете отвечать на сообщения
Вы не можете редактировать свои сообщения
Вы не можете удалять свои сообщения
Вы не можете голосовать в опросах
Вы не можете прикреплять файлы к сообщениям
Вы не можете скачивать файлы

!ВНИМАНИЕ!
Сайт не предоставляет электронные версии произведений, а занимается лишь коллекционированием и каталогизацией ссылок, присылаемых и публикуемых на форуме нашими читателями. Если вы являетесь правообладателем какого-либо представленного материала и не желаете, чтобы ссылка на него находилась в нашем каталоге, свяжитесь с нами, и мы незамедлительно удалим ее. Файлы для обмена на трекере предоставлены пользователями сайта, и администрация не несет ответственности за их содержание. Просьба не заливать файлы, защищенные авторскими правами, а также файлы нелегального содержания!