[ Сегодня идет свободное скачивание без начисления Download ]


Статистика раздачи
Нет
 
   
 
Top  
 
 
-Гомо Эректус / Homo Erectus (2007) DVDRip- Русское название: Гомо Эректус
Оригинальное название: Homo Erectus
Год выпуска: 2007
Жанр: Комедия, Боевик, Мелодрама
Перевод: Дублированный + Профессиональный (двухголосый закадровый)
Продолжительность: 01:23:51
Субтитры: Нет-Дата мировой премьеры: 16.07.08
Дата российской премьеры: 21.08.08
Дата выхода DVD релиза: 23.09.08- -Описание фильма:
Свалилась же на голову счастливого пещерного племени напасть в виде неандертальца-философа по имени Ишбо! Ну, не сидится ему спокойно в пещере и беготня за мамонтом совсем не вдохновляет. Ишбо мечтает о цивилизации, которую, впрочем, представляет весьма смутно. Однако это не мешает древнему новатору изобретать технические новинки для исстрадавшихся от его кулибинского таланта соплеменников. По его милости им приходится испытывать на себе первые модели зубных щеток, чайных ложек и этих ужасно неудобных трусов!
Режиссер: Адам Рифкин
Актеры: Саша Грэй, Адам Рифкин, Эли Лартер, Хэйес МакАртур, Дэвид Кэррадайн, Талия Шайр, Кэрол Альт, Гэри Бьюзи, Майлз Дагал, Джузеппе Эндрюс, Билл Тайри-Рейтинг R - Детям до 17 лет обязательно присутствие родителей
Возраст 18+ - Зрителям, достигшим 18 лет
Видеокодек: Xvid
Видео: 704x400 (1.76:1), 25 fps, XviD build 63 ~1642 kbps avg, 0.23 bit
Аудио1: 48 kHz, AC3 Dolby Digital, 3/2 (L,C,R,l,r) + LFE ch, ~384 kbps Дублированный
Аудио2: 48 kHz, AC3 Dolby Digital, 3/2 (L,C,R,l,r) + LFE ch, ~448 kbps Профессиональный (двухголосый закадровый)

MediaInfo:

General
Complete name : J:\Гомо Эректус Homo Erectus (2007).avi
Format : AVI
Format/Info : Audio Video Interleave
File size : 1.46 GiB
Duration : 1h 23mn
Overall bit rate : 2 489 Kbps
Writing application : VirtualDubMod 1.5.10.3 | www.virtualdub-fr.org || (build 2550/release)
Writing library : VirtualDubMod build 2550/release
Video
ID : 0
Format : MPEG-4 Visual
Format profile : Advanced Simple@L5
Format settings, BVOP : 2
Format settings, QPel : No
Format settings, GMC : No warppoints
Format settings, Matrix : Custom
Codec ID : XVID
Codec ID/Hint : XviD
Duration : 1h 23mn
Bit rate : 1 643 Kbps
Width : 704 pixels
Height : 400 pixels
Display aspect ratio : 16:9
Frame rate : 25.000 fps
Color space : YUV
Chroma subsampling : 4:2:0
Bit depth : 8 bits
Scan type : Progressive
Compression mode : Lossy
Bits/(Pixel*Frame) : 0.233
Stream size : 985 MiB (66%)
Writing library : XviD 63
Audio #1
ID : 1
Format : AC-3
Format/Info : Audio Coding 3
Mode extension : CM (complete main)
Format settings, Endianness : Big
Codec ID : 2000
Duration : 1h 23mn
Bit rate mode : Constant
Bit rate : 384 Kbps
Channel(s) : 6 channels
Channel positions : Front: L C R, Side: L R, LFE
Sampling rate : 48.0 KHz
Bit depth : 16 bits
Compression mode : Lossy
Stream size : 230 MiB (15%)
Alignment : Split accross interleaves
Interleave, duration : 40 ms (1.00 video frame)
Interleave, preload duration : 500 ms
Audio #2
ID : 2
Format : AC-3
Format/Info : Audio Coding 3
Mode extension : CM (complete main)
Format settings, Endianness : Big
Codec ID : 2000
Duration : 1h 23mn
Bit rate mode : Constant
Bit rate : 448 Kbps
Channel(s) : 6 channels
Channel positions : Front: L C R, Side: L R, LFE
Sampling rate : 48.0 KHz
Bit depth : 16 bits
Compression mode : Lossy
Stream size : 269 MiB (18%)
Alignment : Split accross interleaves
Interleave, duration : 40 ms (1.00 video frame)
Interleave, preload duration : 500 ms
Скриншоты:
Время раздачи: До 150 Скачавших.

[Цитировать]



Показать сообщения:    

Текущее время: 25-Фев 03:03

Часовой пояс: UTC + 3


Вы не можете начинать темы
Вы не можете отвечать на сообщения
Вы не можете редактировать свои сообщения
Вы не можете удалять свои сообщения
Вы не можете голосовать в опросах
Вы не можете прикреплять файлы к сообщениям
Вы не можете скачивать файлы

!ВНИМАНИЕ!
Сайт не предоставляет электронные версии произведений, а занимается лишь коллекционированием и каталогизацией ссылок, присылаемых и публикуемых на форуме нашими читателями. Если вы являетесь правообладателем какого-либо представленного материала и не желаете, чтобы ссылка на него находилась в нашем каталоге, свяжитесь с нами, и мы незамедлительно удалим ее. Файлы для обмена на трекере предоставлены пользователями сайта, и администрация не несет ответственности за их содержание. Просьба не заливать файлы, защищенные авторскими правами, а также файлы нелегального содержания!